Loading...
Error

Аннигиляция / Annihilation (Алекс Гарленд) [2018 г., ужасы, фантастика, фэнтези, триллер, драма, детектив, приключения, WEB-DL 720p] MVO (@MUZOBOZ@)

Статистика раздачи
Размер:  4,17 GB   |    Зарегистрирован:  1 год 11 месяцев   |    Скачан:  15 раз

Полного источника не было: 1 год 3 месяца

Сидов:  0  |  0 KB/s  ]   Личеров:  0  |  0 KB/s  ]

* - сиды/пиры с внешних источников

   
 
Автор Сообщение

makkol Пол:Муж

13-Мар-2018 10:54

Аннигиляция / Annihilation


Год выпуска: 2018
Жанр: ужасы, фантастика, фэнтези, триллер, драма, детектив, приключения
Производство: Великобритания , США [DNA Films, Paramount Pictures, Scott Rudin Productions]
Режиссер: Алекс Гарленд
В ролях: Натали Портман, Дженнифер Джейсон Ли, Оскар Айзек, Тесса Томпсон, Джина Родригез, Тува Новотны, Бенедикт Вонг, Дэвид Гяси, Соноя Мидзуно, Джон Шваб
Сюжет фильма:
Профессор биологии Лина уже год страдает от потери мужа-военного. Кейн отправился на очередное секретное задание, но так и не вернулся — жив ли, погиб — женщина не знает, пока однажды дезориентированный и слегка бледный супруг внезапно не появляется на пороге их спальни. Радость длится недолго — у мужчины начинаются судороги и множественные кровотечения, а по дороге в больницу машину скорой помощи тормозят военные. Лина приходит в себя на секретной базе рядом с той самой загадочной зоной, куда уже отправлялись многочисленные экспедиции, но вернулся, оказывается, только один человек — её Кейн.

  • Мировая премьера: 23 февраля 2018


Качество видео: WEB-DL 720p

Продолжительность: 01:57:37
Формат: MKV
Видео: MPEG-4 AVC, 1280x536 (2.40:1), 23.976 fps, 4693 kbps
Аудио: русский, любительский многоголосый закадровый (@MUZOBOZ@), AC3 2.0, 48 kHz, 384 kbps

Код:

Формат : Matroska
Версия формата : Version 2
Размер файла : 4,17 Гбайт
Продолжительность : 1 ч. 57 м.
Режим общего битрейта : Переменный
Общий поток : 5078 Кбит/сек
Дата кодирования : UTC 2018-03-12 22:28:37
Программа кодирования : mkvmerge v8.3.0 ('Over the Horizon') 64bit
Библиотека кодирования : libebml v1.3.1 + libmatroska v1.4.2

Видео
Идентификатор : 1
Формат : AVC
Формат/Информация : Advanced Video Codec
Профиль формата : High@L4.1
Параметр CABAC формата : Да
Параметр RefFrames формата : 4 кадра
Идентификатор кодека : V_MPEG4/ISO/AVC
Продолжительность : 1 ч. 57 м.
Вид битрейта : Переменный
Битрейт : 4693 Кбит/сек
Максимальный битрейт : 5200 Кбит/сек
Ширина : 1280 пикселей
Высота : 536 пикселей
Соотношение сторон : 2,40:1
Режим частоты кадров : Постоянный
Частота кадров : 23,976 (24000/1001) кадра/сек
Стандарт вещания : Component
Цветовое пространство : YUV
Субдискретизация насыщенности : 4:2:0
Битовая глубина : 8 бит
Тип развёртки : Прогрессивная
Бит/(Пиксели*Кадры) : 0.279
Размер потока : 3,77 Гбайт (90%)
Default : Да
Forced : Нет
Цветовой диапазон : Limited
Основные цвета : BT.709
Характеристики трансфера : BT.709
Коэффициенты матрицы : BT.709

Аудио
Идентификатор : 2
Формат : AC-3
Формат/Информация : Audio Coding 3
Расширение режима : CM (complete main)
Параметр Endianness формата : Big
Идентификатор кодека : A_AC3
Продолжительность : 1 ч. 57 м.
Вид битрейта : Постоянный
Битрейт : 384 Кбит/сек
Каналы : 2 канала
Расположение каналов : Front: L R
Частота : 48,0 КГц
Частота кадров : 31,250 кадров/сек (1536 spf)
Метод сжатия : С потерями
Размер потока : 323 Мбайт (8%)
Default : Да
Forced : Нет


picpicpicpic
Для увеличения картинки щелкните мышкой по превью

Этот торрент недоступен для скачивания без регистрации, однако доступен по публичной magnet-ссылке (источники с публичных трекеров). Перед использованием ссылки прочтите, пожалуйста Пользовательское соглашение, а также как можно дольше оставайтесь на раздаче! Для того, чтобы скачать сам торрент-файл (который видит больше источников), а также для того, чтобы поблагодарить релизера, вам необходимо зарегистрироваться. Если регистрироваться лень - вы можете также попробовать скачать релиз по нашим партнерским ссылкам ниже. Кроме того, зарегистрированным пользователям не показывается всплывающая реклама при скачивании.

[underverse.me].t99788.torrent
Трекер: Зарегистрирован   [ 13.03.2018 10:54 ]  

Статус: T временная (by makkol at 13.03.2018 10:55)
Поблагодарили: пока никто не поблагодарил...
Тип торрента: публичный - доступные источники с открытых трекеров: 
Размер: 4,17 GB (занимает 0,95 DVDR, для записи нужно 1 болванка DVDR/RW)
 
 
Похожие темы
Форум Тема Автор Торрент Отв. Посл. сооб.
T Зарубежное кино [DVDRip, Low-Res HDRip, и т.д.] Аннигиляция / Annihilation (Алекс Гарленд) [2018 г., ужасы, фантастика, фэнтези, триллер, драма, детектив, приключения, WEB-DLRip] MVO (@MUZOBOZ@) makkol
6 | 0

0 | 845

28

13.03.2018 10:38

T Зарубежное кино [DVDRip, Low-Res HDRip, и т.д.] Аннигиляция / Annihilation (Алекс Гарленд) [2018 г., ужасы, фантастика, фэнтези, триллер, драма, детектив, приключения, WEB-DLRip] MVO (@MUZOBOZ@) makkol
14 | 0

0 | 649

19

13.03.2018 10:47

T Зарубежное кино [DVDRip, Low-Res HDRip, и т.д.] Аннигиляция / Annihilation (Алекс Гарленд / Alex Garland) [2018 г., фантастика, фэнтези, ужасы, триллер, драма, детектив, приключения, WEBRip] VO (Хихидок) + Original (Eng) + Sub (Rus) 90ytr90
23 | 0

0 | 988

17

13.03.2018 14:54

Зарубежное кино [DVDRip, Low-Res HDRip, и т.д.] Аннигиляция / Annihilation (Алекс Гарленд / Alex Garland) [2018 г., фантастика, фэнтези, ужасы, триллер, драма, детектив, приключения, WEBRip] MVO (@MUZOBOZ@) + Original (Eng) 90ytr90
14 | 0

1 | 1046

35

31.03.2018 13:21

Зарубежное кино [DVDRip, Low-Res HDRip, и т.д.] Аннигиляция / Annihilation (Алекс Гарленд / Alex Garland) [2018 г., фантастика, фэнтези, ужасы, триллер, драма, детектив, приключения, WEBRip] MVO (HDRezka studio) + Original (Eng) 90ytr90
63 | 0

0 | 1983

66

14.03.2018 14:01

T Зарубежное кино [DVDRip, Low-Res HDRip, и т.д.] Аннигиляция / Annihilation (Алекс Гарленд / Alex Garland) [2018 г., фантастика, фэнтези, ужасы, триллер, драма, детектив, приключения, WEBRip] Dub (чистый звук) 90ytr90
0 | 0

0 | 782

14

19.03.2018 19:09

T Зарубежное кино [DVDRip, Low-Res HDRip, и т.д.] Аннигиляция / Annihilation (Алекс Гарленд / Alex Garland) [2018 г., фантастика, фэнтези, ужасы, триллер, драма, детектив, приключения, WEBRip] Dub (чистый звук) 90ytr90
22 | 0

0 | 1133

30

19.03.2018 19:10

Зарубежное кино [DVDRip, Low-Res HDRip, и т.д.] Аннигиляция / Annihilation (Алекс Гарленд / Alex Garland) [2018 г., фантастика, фэнтези, ужасы, триллер, драма, детектив, приключения, WEBRip] MVO (Jaskier) 90ytr90
53 | 4

0 | 750

36

06.04.2018 03:55

T Зарубежное кино [DVDRip, Low-Res HDRip, и т.д.] Аннигиляция / Annihilation (Алекс Гарленд / Alex Garland) [2018 г., фантастика, фэнтези, ужасы, триллер, драма, детектив, приключения, HDRip] Dub (чистый звук) 90ytr90
11 | 0

0 | 524

12

16.05.2018 20:16

T Зарубежное кино [DVDRip, Low-Res HDRip, и т.д.] Аннигиляция / Annihilation (Алекс Гарленд / Alex Garland) [2018 г., фантастика, фэнтези, ужасы, триллер, драма, детектив, приключения, HDRip] Dub (чистый звук) 90ytr90
9 | 0

1 | 670

29

26.06.2018 21:26


Яндекс.Метрика powered by Sphinx


В Н И М А Н И Е
Сайт не распространяет и не хранит электронные версии произведений, а лишь бесплатно и без коммерческой выгоды (не требуя взамен платы,
SMS и т.д.) предоставляет доступ к создаваемому пользователями каталогу ссылок на торрент-файлы, которые содержат только списки хеш-сумм.
Убедительная просьба с жалобами обращаться напрямую к пользователю, разместившему торрент файл.

Вверх