Loading...
Error

Мумия / The Mummy (Алекс Куртцман / Alex Kurtzman) [2017 г., ужасы, фэнтези, боевик, приключения, BDRemux 1080p] Dub + 3xAVO (Дохалов, Живов, Сербин) + Original (Eng) + Sub (Rus, Eng)

Статистика раздачи
Размер:  36,73 GB   |    Зарегистрирован:  1 месяц 18 дней   |    Скачан:  0 раз

Полного источника не было: Никогда

Сидов:  0  |  0 KB/s  ]   Личеров:  0  |  0 KB/s  ]

* - сиды/пиры с внешних источников

   
 
Автор Сообщение

90ytr90 

03-Мар-2018 11:15

Мумия / The Mummy
«Отныне миром правят боги и монстры»

Страна: США / Universal Pictures
Год выпуска: 2017
Жанр: ужасы, фэнтези, боевик, приключения
Продолжительность: 01:50:06
Озвучивание:
  • профессиональное (полное дублирование)
  • профессиональное (полное дублирование)
  • авторское (одноголосое закадровое) [Дохалов]
  • авторское (одноголосое закадровое) [Живов]
  • авторское (одноголосое закадровое) [Сербин]
  • оригинальная звуковая дорожка [английский]

Режиссёр: Алекс Куртцман / Alex Kurtzman

В ролях:
Том Круз (Nick Morton), Рассел Кроу (Dr. Henry Jekyll), Аннабелль Уоллис (Jenny Halsey), София Бутелла (Ahmanet), Джейк Джонсон (Chris Vail), Кортни Б. Вэнс (Colonel Greenway), Марван Кензари (Malik), Саймон Атертон (Crusader), Стивен Томпсон (First Man), Джеймс Арама (Second Man), Мэтт Уилкас (Reporter), Зом Капила (Reporter)


Сюжет фильма:
Посреди безжалостной пустыни в величественном саркофаге погребена дочь египетского фараона, но настанет день, и она явится в наш мир вернуть себе то, что принадлежит ей по праву. Отныне миром правят боги и монстры.

  • Дата мировой премьеры: 22 мая 2017
  • Дата российской премьеры: 8 июня 2017, «UPI»
             
Качество видео: BDRemux 1080p
Формат: MKV
Видео: AVC, 1920x1080 (16:9), 25.1 Mbps, 23.976 (24000/1001) fps, 0.504 bit/pixel
Аудио #1: DTS, 768 kbps, 6 ch, 48 kHz, Dub
Аудио #2: AC3, 448 kbps, 6 ch, 48 kHz, Dub
Аудио #3: DTS-HD MA, 4581 kbps, 8 ch, 48 kHz, AVO [Дохалов]
Аудио #4: DTS-HD MA, 5179 kbps, 8 ch, 48 kHz, AVO [Живов]
Аудио #5: DTS-HD MA, 5343 kbps, 8 ch, 48 kHz, AVO [Сербин]
Аудио #6: AC3, 640 kbps, 6 ch, 48 kHz, AVO [Дохалов]
Аудио #7: TrueHD, 5016 kbps, 8 ch, 48 kHz, Original [English]
Аудио #8: AC3, 640 kbps, 6 ch, 48 kHz, Original [English]
Субтитры: Russian (forced, full), English (full, SDH, SDH-Colored)
Навигация по главам: есть (20)

Общее 
Уникальный идентификатор : 229331982546900712060795028724854535648 (0xAC87BBB591B995318B8737F8779FB5E0)
Полное имя : D:\РЕМУКС!!!!!\Мумия (2017).DRemux.mkv
Формат : Matroska
Версия формата : Version 4 / Version 2
Размер файла : 36,7 Гбайт
Продолжительность : 1 ч. 50 м.
Режим общего битрейта : Переменный
Общий поток : 47,8 Мбит/сек
Название фильма : Мумия (2017).DRemux.thx:SPOMOPS
Дата кодирования : UTC 2018-03-14 14:25:53
Программа кодирования : mkvmerge v8.3.0 ('Over the Horizon') 64bit
Библиотека кодирования : libebml v1.3.1 + libmatroska v1.4.2

Видео
Идентификатор : 1
Формат : AVC
Формат/Информация : Advanced Video Codec
Профиль формата : High@L4.1
Настройки формата : CABAC / 4 Ref Frames
Параметр CABAC формата : Да
Параметр RefFrames формата : 4 кадра
Идентификатор кодека : V_MPEG4/ISO/AVC
Продолжительность : 1 ч. 50 м.
Вид битрейта : Переменный
Битрейт : 25,1 Мбит/сек
Максимальный битрейт : 28,0 Мбит/сек
Ширина : 1920 пикселей
Высота : 1080 пикселей
Соотношение сторон : 16:9
Режим частоты кадров : Постоянный
Частота кадров : 23,976 (24000/1001) кадра/сек
Цветовое пространство : YUV
Субдискретизация насыщенности : 4:2:0
Битовая глубина : 8 бит
Тип развёртки : Прогрессивная
Бит/(Пиксели*Кадры) : 0.504
Размер потока : 19,3 Гбайт (52%)
Язык : English
Default : Да
Forced : Нет

Аудио #1
Идентификатор : 2
Формат : DTS
Формат/Информация : Digital Theater Systems
Идентификатор кодека : A_DTS
Продолжительность : 1 ч. 50 м.
Вид битрейта : Постоянный
Битрейт : 768 Кбит/сек
Каналы : 6 каналов
Расположение каналов : Front: L C R, Side: L R, LFE
Частота : 48,0 КГц
Частота кадров : 93,750 кадра/сек (512 SPF)
Битовая глубина : 24 бит
Метод сжатия : С потерями
Размер потока : 605 Мбайт (2%)
Заголовок : Русский DTS - Дубляж
Язык : Russian
Default : Да
Forced : Нет

Аудио #2
Идентификатор : 3
Формат : AC-3
Формат/Информация : Audio Coding 3
Идентификатор кодека : A_AC3
Продолжительность : 1 ч. 50 м.
Вид битрейта : Постоянный
Битрейт : 448 Кбит/сек
Каналы : 6 каналов
Расположение каналов : Front: L C R, Side: L R, LFE
Частота : 48,0 КГц
Частота кадров : 31,250 кадров/сек (1536 SPF)
Битовая глубина : 16 бит
Метод сжатия : С потерями
Размер потока : 353 Мбайт (1%)
Заголовок : Русский ас3 - Дубляж
Язык : Russian
ServiceKind/String : Complete Main
Default : Нет
Forced : Нет

Аудио #3
Идентификатор : 4
Формат : DTS
Формат/Информация : Digital Theater Systems
Профиль формата : MA / Core
Идентификатор кодека : A_DTS
Продолжительность : 1 ч. 50 м.
Вид битрейта : Переменный / Постоянный
Битрейт : 4581 Кбит/сек / 1509 Кбит/сек
Каналы : 8 каналов / 6 каналов
Расположение каналов : Front: L C R, Side: L R, Back: L R, LFE / Front: L C R, Side: L R, LFE
Частота : 48,0 КГц
Частота кадров : 93,750 кадра/сек (512 SPF)
Битовая глубина : 24 бит
Метод сжатия : Без потерь / Lossy
Размер потока : 3,52 Гбайт (10%)
Заголовок : Русский DTS HD - MA - АП (Дохалов)
Язык : Russian
Default : Нет
Forced : Нет

Аудио #4
Идентификатор : 5
Формат : DTS
Формат/Информация : Digital Theater Systems
Профиль формата : MA / Core
Идентификатор кодека : A_DTS
Продолжительность : 1 ч. 50 м.
Вид битрейта : Переменный / Постоянный
Битрейт : 5179 Кбит/сек / 1509 Кбит/сек
Каналы : 8 каналов / 6 каналов
Расположение каналов : Front: L C R, Side: L R, Back: L R, LFE / Front: L C R, Side: L R, LFE
Частота : 48,0 КГц
Частота кадров : 93,750 кадра/сек (512 SPF)
Битовая глубина : 24 бит
Метод сжатия : Без потерь / Lossy
Размер потока : 3,98 Гбайт (11%)
Заголовок : Русский DTS HD - MA - АП (Живов)
Язык : Russian
Default : Нет
Forced : Нет

Аудио #5
Идентификатор : 6
Формат : DTS
Формат/Информация : Digital Theater Systems
Профиль формата : MA / Core
Идентификатор кодека : A_DTS
Продолжительность : 1 ч. 50 м.
Вид битрейта : Переменный / Постоянный
Битрейт : 5343 Кбит/сек / 1509 Кбит/сек
Каналы : 8 каналов / 6 каналов
Расположение каналов : Front: L C R, Side: L R, Back: L R, LFE / Front: L C R, Side: L R, LFE
Частота : 48,0 КГц
Частота кадров : 93,750 кадра/сек (512 SPF)
Битовая глубина : 24 бит
Метод сжатия : Без потерь / Lossy
Размер потока : 4,11 Гбайт (11%)
Заголовок : Русский DTS HD - MA - АП (Сербин)
Язык : Russian
Default : Нет
Forced : Нет

Аудио #6
Идентификатор : 7
Формат : AC-3
Формат/Информация : Audio Coding 3
Идентификатор кодека : A_AC3
Продолжительность : 1 ч. 50 м.
Вид битрейта : Постоянный
Битрейт : 640 Кбит/сек
Каналы : 6 каналов
Расположение каналов : Front: L C R, Side: L R, LFE
Частота : 48,0 КГц
Частота кадров : 31,250 кадров/сек (1536 SPF)
Битовая глубина : 16 бит
Метод сжатия : С потерями
Размер потока : 504 Мбайт (1%)
Заголовок : Русский ас3 - АП (Дохалов)
Язык : Russian
ServiceKind/String : Complete Main
Default : Нет
Forced : Нет

Аудио #7
Идентификатор : 8
Формат : TrueHD
Профиль формата : TrueHD+Atmos / TrueHD
Идентификатор кодека : A_TRUEHD
Продолжительность : 1 ч. 50 м.
Вид битрейта : Переменный
Битрейт : 5016 Кбит/сек
Максимальный битрейт : 8133 Кбит/сек
Каналы : Object Based / 8 каналов
Расположение каналов : Object Based / Front: L C R, Side: L R, Back: L R, LFE
Частота : / 48,0 КГц
Частота кадров : 1200,000 кадров/сек (40 SPF)
Метод сжатия : Без потерь
Размер потока : 3,86 Гбайт (11%)
Заголовок : Английский TrueHD - Оригинал
Язык : English
Default : Нет
Forced : Нет

Аудио #8
Идентификатор : 9
Формат : AC-3
Формат/Информация : Audio Coding 3
Идентификатор кодека : A_AC3
Продолжительность : 1 ч. 50 м.
Вид битрейта : Постоянный
Битрейт : 640 Кбит/сек
Каналы : 6 каналов
Расположение каналов : Front: L C R, Side: L R, LFE
Частота : 48,0 КГц
Частота кадров : 31,250 кадров/сек (1536 SPF)
Битовая глубина : 16 бит
Метод сжатия : С потерями
Размер потока : 504 Мбайт (1%)
Заголовок : Английский ас3 - Оригинал
Язык : English
ServiceKind/String : Complete Main
Default : Нет
Forced : Нет

Текст #1
Идентификатор : 10
Формат : UTF-8
Идентификатор кодека : S_TEXT/UTF8
Идентификатор кодека/Информация : UTF-8 Plain Text
Продолжительность : 1 ч. 49 м.
Битрейт : 1 бит/сек
ElementCount : 44
Размер потока : 1,31 Кбайт (0%)
Заголовок : Русские - Forced
Язык : Russian
Default : Да
Forced : Нет

Текст #2
Идентификатор : 11
Формат : UTF-8
Идентификатор кодека : S_TEXT/UTF8
Идентификатор кодека/Информация : UTF-8 Plain Text
Продолжительность : 1 ч. 49 м.
Битрейт : 50 бит/сек
ElementCount : 1065
Размер потока : 40,6 Кбайт (0%)
Заголовок : Русские
Язык : Russian
Default : Нет
Forced : Нет

Текст #3
Идентификатор : 12
Формат : UTF-8
Идентификатор кодека : S_TEXT/UTF8
Идентификатор кодека/Информация : UTF-8 Plain Text
Продолжительность : 1 ч. 36 м.
Битрейт : 41 бит/сек
ElementCount : 1081
Размер потока : 29,4 Кбайт (0%)
Заголовок : Английские
Язык : English
Default : Нет
Forced : Нет

Текст #4
Идентификатор : 13
Формат : UTF-8
Идентификатор кодека : S_TEXT/UTF8
Идентификатор кодека/Информация : UTF-8 Plain Text
Продолжительность : 1 ч. 37 м.
Битрейт : 49 бит/сек
ElementCount : 1327
Размер потока : 35,5 Кбайт (0%)
Заголовок : Английские - SDH
Язык : English
Default : Нет
Forced : Нет

Текст #5
Идентификатор : 14
Формат : UTF-8
Идентификатор кодека : S_TEXT/UTF8
Идентификатор кодека/Информация : UTF-8 Plain Text
Продолжительность : 1 ч. 37 м.
Битрейт : 73 бит/сек
ElementCount : 1357
Размер потока : 52,5 Кбайт (0%)
Заголовок : Английские - SDH Colored
Язык : English
Default : Нет
Forced : Нет

Меню
00:00:00.000 : en:00:00:00.000
00:08:18.707 : en:00:08:18.707
00:13:18.923 : en:00:13:18.923
00:19:31.462 : en:00:19:31.462
00:24:40.145 : en:00:24:40.145
00:28:54.107 : en:00:28:54.107
00:35:41.389 : en:00:35:41.389
00:39:36.040 : en:00:39:36.040
00:47:00.067 : en:00:47:00.067
00:50:57.638 : en:00:50:57.638
00:56:49.740 : en:00:56:49.740
01:00:43.849 : en:01:00:43.849
01:08:58.009 : en:01:08:58.009
01:16:03.851 : en:01:16:03.851
01:19:38.440 : en:01:19:38.440
01:23:16.408 : en:01:23:16.408
01:26:26.848 : en:01:26:26.848
01:33:34.943 : en:01:33:34.943
01:37:02.984 : en:01:37:02.984
01:39:47.982 : en:01:39:47.982


pic pic pic pic pic pic

Этот торрент недоступен для скачивания без регистрации, однако доступен по публичной magnet-ссылке (источники с публичных трекеров). Перед использованием ссылки прочтите, пожалуйста Пользовательское соглашение, а также как можно дольше оставайтесь на раздаче! Для того, чтобы скачать сам торрент-файл (который видит больше источников), а также для того, чтобы поблагодарить релизера, вам необходимо зарегистрироваться. Если регистрироваться лень - вы можете также попробовать скачать релиз по нашим партнерским ссылкам ниже. Кроме того, зарегистрированным пользователям не показывается всплывающая реклама при скачивании.

[underver.se].t98722.torrent
Трекер: Зарегистрирован   [ 07.01.2020 13:17 ]  

Статус: проверено (by 90ytr90 at 07.01.2020 13:19)
Поблагодарили: пока никто не поблагодарил...
Тип торрента: публичный - доступные источники с открытых трекеров: 
Размер: 36,73 GB (занимает 8,39 DVDR, для записи нужно 9 болванок DVDR/RW)
 
 
Похожие темы
Форум Тема Автор Торрент Отв. Посл. сооб.
T Зарубежное кино [DVDRip, Low-Res HDRip, и т.д.] Мумия / The Mummy (Алекс Куртцман) [2017 г., ужасы, фэнтези, боевик, приключения, HDTVRip] MVO (Синема УС) makkol
14 | 0

0 | 1830

50

13.07.2017 21:32

Зарубежное кино [DVDRip, Low-Res HDRip, и т.д.] Мумия / The Mummy (Алекс Куртцман / Alex Kurtzman) [2017 г., ужасы, фэнтези, боевик, приключения, BDRip-AVC] Dub + Original (Eng) + Sub (Rus, Eng) 90ytr90
2 | 0

0 | 414

6

03.03.2018 11:22

Зарубежное кино [DVDRip, Low-Res HDRip, и т.д.] Мумия / The Mummy (Алекс Куртцман / Alex Kurtzman) [2017 г., ужасы, фэнтези, боевик, приключения, BDRip] Dub + Original (Eng) 90ytr90
5 | 0

0 | 438

1

03.03.2018 11:24

Зарубежное кино [DVDRip, Low-Res HDRip, и т.д.] Мумия / The Mummy (Алекс Куртцман / Alex Kurtzman) [2017 г., ужасы, фэнтези, боевик, приключения, HDRip] Dub + hardsub (Rus) 90ytr90
3 | 0

0 | 447

2

03.03.2018 11:28

Зарубежное кино [DVDRip, Low-Res HDRip, и т.д.] Мумия / The Mummy (Алекс Куртцман / Alex Kurtzman) [2017 г., ужасы, фэнтези, боевик, приключения, BDRip] Dub + Original (Eng) + hardsub (Rus) 90ytr90
1 | 1

0 | 471

6

03.03.2018 11:33

Зарубежное кино [DVDRip, Low-Res HDRip, и т.д.] Мумия / The Mummy (Алекс Куртцман / Alex Kurtzman) [2017 г., ужасы, фэнтези, боевик, приключения, BDRip] Dub + hardsub (Rus) 90ytr90
3 | 0

0 | 401

4

03.03.2018 11:36

Зарубежное кино [DVDRip, Low-Res HDRip, и т.д.] Мумия / The Mummy (Алекс Куртцман / Alex Kurtzman) [2017 г., ужасы, фэнтези, боевик, приключения, BDRip] Dub + Sub (Rus) 90ytr90
202 | 6

0 | 832

28

03.03.2018 11:50

Зарубежное кино [DVDRip, Low-Res HDRip, и т.д.] Мумия / The Mummy (Алекс Куртцман / Alex Kurtzman) [2017 г., ужасы, фэнтези, боевик, приключения, BDRip-AVC] Dub + Sub (Rus) 90ytr90
6 | 0

0 | 397

6

07.01.2020 13:30

Зарубежное кино [DVDRip, Low-Res HDRip, и т.д.] Мумия / The Mummy (Алекс Куртцман / Alex Kurtzman) [2017 г., ужасы, фэнтези, боевик, приключения, BDRip-AVC] Dub + Original (Eng) + Sub (Rus, Eng) 90ytr90
5 | 0

0 | 280

6

07.01.2020 13:54

Зарубежное кино [DVD / HDDVD / BD / Remux] Мумия / The Mummy (Стивен Соммерс / Stephen Sommers) [1999 г., приключения, HDDVD Remux, 1080p] uzi2009
1 | 0

0 | 2348

7

06.03.2014 21:29


Яндекс.Метрика powered by Sphinx


В Н И М А Н И Е
Сайт не распространяет и не хранит электронные версии произведений, а лишь бесплатно и без коммерческой выгоды (не требуя взамен платы,
SMS и т.д.) предоставляет доступ к создаваемому пользователями каталогу ссылок на торрент-файлы, которые содержат только списки хеш-сумм.
Убедительная просьба с жалобами обращаться напрямую к пользователю, разместившему торрент файл.

Вверх