Loading...
Error

Тайны коптских мумий / Coptic Mummies of Antinoopolis (Джеки Бастид) [2012 г., документальный, история, исследования, археология, DVB 720р] VO + Original (Eng)

Статистика раздачи
Размер:  2,87 GB   |    Зарегистрирован:  2 года   |    Скачан:  4 раза

Полного источника не было: 1 год 8 месяцев

Сидов:  0  |  0 KB/s  ]   Личеров:  0  |  0 KB/s  ]

* - сиды/пиры с внешних источников

   
 
Автор Сообщение

ARI71 Пол:Муж

01-Фев-2018 14:13

Тайны коптских мумий / Coptic Mummies of Antinoopolis


Год выпуска: 2012
Жанр: документальный, история, исследования, археология
Страна: Франция Arte France, Cargo Films and Ie CNRS Images
Режиссер: Джеки Бастид
Текст читает: Виктория Бабанова
Сюжет фильма:
В конце 1990-х годов французский археолог Альбер Гайе сделал удивительное открытие. В центральной части Египта он обнаружил мумии, текстиль и другие артефакты, принадлежащие коптам – первым христианам Египта. Все это время мумии были спрятаны в подвалах Лувра, и были лишь недавно обнаружены сотрудниками музея во время инвентаризации. Спустя целое столетие ученые берутся за свое собственное расследование в надежде узнать больше о загадочной цивилизации коптов.

Качество видео: DVB 720р

Продолжительность: 00:51:39
Формат: TS
Видео: MPEG-4 AVC, 1280x720, 7300 kbps
Аудио #1: русский, одноголосый [профессиональный], MP2 2.0, 128 kbps
Аудио #2: английский, оригинал, MP2 2.0, 128 kbps

Автор рипа и постера: skorpionN

Код:

Общее
Идентификатор : 1 (0x1)
Полное имя : D:\Coptic Mummies of Antinoopolis_720p.ts
Формат : MPEG-TS
Размер файла : 2,87 Гбайт
Продолжительность : 51 м. 38 с.
Режим общего битрейта : Переменный
Общий поток : 7951 Кбит/сек

Видео
Идентификатор : 305 (0x131)
Идентификатор меню : 17105 (0x42D1)
Формат : AVC
Формат/Информация : Advanced Video Codec
Профиль формата : High@L4
Настройки формата : CABAC / 5 Ref Frames
Параметр CABAC формата : Да
Параметр RefFrames формата : 5 кадров
Параметр GOP формата : M=8, N=64
Идентификатор кодека : 27
Продолжительность : 51 м. 38 с.
Битрейт : 7300 Кбит/сек
Ширина : 1280 пикселей
Высота : 720 пикселей
Соотношение сторон : 16:9
Частота кадров : 50,000 кадров/сек
Стандарт вещания : Component
Цветовое пространство : YUV
Субдискретизация насыщенности : 4:2:0
Битовая глубина : 8 бит
Тип развёртки : Прогрессивная
Бит/(Пиксели*Кадры) : 0.158
Размер потока : 2,63 Гбайт (92%)
Цветовой диапазон : Limited
Основные цвета : BT.709
Характеристики трансфера : BT.709
Коэффициенты матрицы : BT.709

Аудио #1
Идентификатор : 405 (0x195)
Идентификатор меню : 17105 (0x42D1)
Формат : MPEG Audio
Версия формата : Version 1
Профиль формата : Layer 2
Идентификатор кодека : 3
Продолжительность : 51 м. 38 с.
Вид битрейта : Постоянный
Битрейт : 128 Кбит/сек
Каналы : 2 канала
Частота : 48,0 КГц
Частота кадров : 41,667 кадра/сек (1152 SPF)
Метод сжатия : С потерями
Задержка видео : -80 мс.
Размер потока : 47,3 Мбайт (2%)
Язык : Russian

Аудио #2
Идентификатор : 406 (0x196)
Идентификатор меню : 17105 (0x42D1)
Формат : MPEG Audio
Версия формата : Version 1
Профиль формата : Layer 2
Идентификатор кодека : 3
Продолжительность : 51 м. 38 с.
Вид битрейта : Постоянный
Битрейт : 128 Кбит/сек
Каналы : 2 канала
Частота : 48,0 КГц
Частота кадров : 41,667 кадра/сек (1152 SPF)
Метод сжатия : С потерями
Задержка видео : -80 мс.
Размер потока : 47,3 Мбайт (2%)
Язык : English
picpicpicpicpic
Для увеличения картинки щелкните мышкой по превью

Этот торрент недоступен для скачивания без регистрации, однако доступен по публичной magnet-ссылке (источники с публичных трекеров). Перед использованием ссылки прочтите, пожалуйста Пользовательское соглашение, а также как можно дольше оставайтесь на раздаче! Для того, чтобы скачать сам торрент-файл (который видит больше источников), а также для того, чтобы поблагодарить релизера, вам необходимо зарегистрироваться. Если регистрироваться лень - вы можете также попробовать скачать релиз по нашим партнерским ссылкам ниже. Кроме того, зарегистрированным пользователям не показывается всплывающая реклама при скачивании.

[underverse.me].t95617.torrent
Трекер: Зарегистрирован   [ 01.02.2018 14:13 ]  

Статус: проверено (by ARI71 at 01.02.2018 14:14)
Поблагодарили: пока никто не поблагодарил...
Тип торрента: публичный - доступные источники с открытых трекеров: 
Размер: 2,87 GB (занимает 0,66 DVDR, для записи нужно 1 болванка DVDR/RW)
 
 

Яндекс.Метрика powered by Sphinx


В Н И М А Н И Е
Сайт не распространяет и не хранит электронные версии произведений, а лишь бесплатно и без коммерческой выгоды (не требуя взамен платы,
SMS и т.д.) предоставляет доступ к создаваемому пользователями каталогу ссылок на торрент-файлы, которые содержат только списки хеш-сумм.
Убедительная просьба с жалобами обращаться напрямую к пользователю, разместившему торрент файл.

Вверх