Loading...
Error

Мумия / The Mummy (Алекс Куртцман) [2017 г., ужасы, фэнтези, боевик, приключения, TS] Dub

Статистика раздачи
Размер:  1,37 GB   |    Зарегистрирован:  2 года 8 месяцев   |    Скачан:  102 раза

Полного источника не было: 2 месяца 21 день

Сидов:  0  |  0 KB/s  ]   Личеров:  0  |  0 KB/s  ]

* - сиды/пиры с внешних источников

   
 
Автор Сообщение

makkol Пол:Муж

09-Июн-2017 21:23

Мумия / The Mummy
«Отныне миром правят боги и монстры»


Год выпуска: 2017
Жанр: ужасы, фэнтези, боевик, приключения
Производство: США [Perfect World Pictures, Sean Daniel Company, Universal Pictures]
Режиссер: Алекс Куртцман
В ролях: Том Круз, Расселл Кроу, Аннабелль Уоллис, София Бутелла, Джейк Джонсон, Кортни Б. Вэнс, Марван Кензари, Саймон Атертон
Сюжет фильма:
Посреди безжалостной пустыни в величественном саркофаге погребена дочь египетского фараона, но настанет день, и она явится в наш мир вернуть себе то, что принадлежит ей по праву. Отныне миром правят боги и монстры.

  • Мировая премьера: 22 мая 2017
  • Российская премьера: 8 июня 2017


Качество видео: TS

Продолжительность: 01:40:42
Формат: AVI
Видео: XviD, 720x304 (2.35:1), 29.970 fps, 1740 kbps
Аудио: русский, дублированный, AC3 2.0, 48 kHz, 192 kbps

Код:

Формат                                   : AVI
Формат/Информация                        : Audio Video Interleave
Размер файла                             : 1,37 Гбайт
Продолжительность                        : 1 ч. 40 м.
Общий поток                              : 1944 Кбит/сек
Программа кодирования                    : VirtualDubMod 1.5.10.2 (build 2540/release)
Библиотека кодирования                   : VirtualDubMod build 2540/release

Видео
Идентификатор                            : 0
Формат                                   : MPEG-4 Visual
Профиль формата                          : Advanced Simple@L5
Параметр BVOP формата                    : 2
Параметр QPel формата                    : Нет
Параметр GMC формата                     : Без точки перехода
Параметр матрицы формата                 : Default (MPEG)
Идентификатор кодека                     : XVID
Идентификатор кодека/Подсказка           : XviD
Продолжительность                        : 1 ч. 40 м.
Битрейт                                  : 1740 Кбит/сек
Ширина                                   : 720 пикселей
Высота                                   : 304 пикселя
Соотношение сторон                       : 2,35:1
Частота кадров                           : 29,970 (30000/1001) кадров/сек
Цветовое пространство                    : YUV
Субдискретизация насыщенности            : 4:2:0
Битовая глубина                          : 8 бит
Тип развёртки                            : Прогрессивная
Метод сжатия                             : С потерями
Бит/(Пиксели*Кадры)                      : 0.265
Размер потока                            : 1,22 Гбайт (90%)
Библиотека кодирования                   : XviD 1.2.1 (UTC 2008-12-04)

Аудио
Идентификатор                            : 1
Формат                                   : AC-3
Формат/Информация                        : Audio Coding 3
Расширение режима                        : CM (complete main)
Параметр Endianness формата              : Big
Идентификатор кодека                     : 2000
Продолжительность                        : 1 ч. 40 м.
Вид битрейта                             : Постоянный
Битрейт                                  : 192 Кбит/сек
Каналы                                   : 2 канала
Расположение каналов                     : Front: L R
Частота                                  : 48,0 КГц
Частота кадров                           : 31,250 кадров/сек (1536 spf)
Метод сжатия                             : С потерями
Размер потока                            : 138 Мбайт (10%)
Выравнивание                             : Разделение по промежуткам
Продолжительность промежутка             : 33  мс. (1,00 видеокадр)
Время предзагрузки промежутка            : 500  мс.


picpicpicpicpic
Для увеличения картинки щелкните мышкой по превью

Этот торрент недоступен для скачивания без регистрации, однако доступен по публичной magnet-ссылке (источники с публичных трекеров). Перед использованием ссылки прочтите, пожалуйста Пользовательское соглашение, а также как можно дольше оставайтесь на раздаче! Для того, чтобы скачать сам торрент-файл (который видит больше источников), а также для того, чтобы поблагодарить релизера, вам необходимо зарегистрироваться. Если регистрироваться лень - вы можете также попробовать скачать релиз по нашим партнерским ссылкам ниже. Кроме того, зарегистрированным пользователям не показывается всплывающая реклама при скачивании.

[underverse.me].t83866.torrent
Трекер: Зарегистрирован   [ 09.06.2017 21:23 ]  

Статус: поглощено (by 90ytr90 at 07.01.2020 12:52)
Поблагодарили: 4 человека
Тип торрента: публичный - доступные источники с открытых трекеров: 
Размер: 1,37 GB (занимает 0,31 DVDR, для записи нужно 1 болванка DVDR/RW)
 
 
Похожие темы
Форум Тема Автор Торрент Отв. Посл. сооб.
T Зарубежное кино [DVDRip, Low-Res HDRip, и т.д.] Мумия / The Mummy (Алекс Куртцман) [2017 г., ужасы, фэнтези, боевик, приключения, HDTVRip] MVO (Синема УС) makkol
14 | 0

0 | 1830

50

13.07.2017 21:32

Зарубежное кино [DVDRip, Low-Res HDRip, и т.д.] Мумия / The Mummy (Алекс Куртцман / Alex Kurtzman) [2017 г., ужасы, фэнтези, боевик, приключения, BDRip-AVC] Dub + Original (Eng) + Sub (Rus, Eng) 90ytr90
2 | 0

0 | 414

6

03.03.2018 11:22

Зарубежное кино [DVDRip, Low-Res HDRip, и т.д.] Мумия / The Mummy (Алекс Куртцман / Alex Kurtzman) [2017 г., ужасы, фэнтези, боевик, приключения, BDRip] Dub + Original (Eng) 90ytr90
5 | 0

0 | 438

1

03.03.2018 11:24

Зарубежное кино [DVDRip, Low-Res HDRip, и т.д.] Мумия / The Mummy (Алекс Куртцман / Alex Kurtzman) [2017 г., ужасы, фэнтези, боевик, приключения, HDRip] Dub + hardsub (Rus) 90ytr90
3 | 0

0 | 447

2

03.03.2018 11:28

Зарубежное кино [DVDRip, Low-Res HDRip, и т.д.] Мумия / The Mummy (Алекс Куртцман / Alex Kurtzman) [2017 г., ужасы, фэнтези, боевик, приключения, BDRip] Dub + Original (Eng) + hardsub (Rus) 90ytr90
1 | 1

0 | 471

6

03.03.2018 11:33

Зарубежное кино [DVDRip, Low-Res HDRip, и т.д.] Мумия / The Mummy (Алекс Куртцман / Alex Kurtzman) [2017 г., ужасы, фэнтези, боевик, приключения, BDRip] Dub + hardsub (Rus) 90ytr90
3 | 0

0 | 401

4

03.03.2018 11:36

Зарубежное кино [DVDRip, Low-Res HDRip, и т.д.] Мумия / The Mummy (Алекс Куртцман / Alex Kurtzman) [2017 г., ужасы, фэнтези, боевик, приключения, BDRip] Dub + Sub (Rus) 90ytr90
202 | 6

0 | 832

28

03.03.2018 11:50

Зарубежное кино [DVDRip, Low-Res HDRip, и т.д.] Мумия / The Mummy (Алекс Куртцман / Alex Kurtzman) [2017 г., ужасы, фэнтези, боевик, приключения, BDRip-AVC] Dub + Sub (Rus) 90ytr90
6 | 0

0 | 398

6

07.01.2020 13:30

Зарубежное кино [DVDRip, Low-Res HDRip, и т.д.] Мумия / The Mummy (Алекс Куртцман / Alex Kurtzman) [2017 г., ужасы, фэнтези, боевик, приключения, BDRip-AVC] Dub + Original (Eng) + Sub (Rus, Eng) 90ytr90
5 | 0

0 | 280

6

07.01.2020 13:54

Зарубежное кино [DVD / HDDVD / BD / Remux] Мумия / The Mummy (Стивен Соммерс / Stephen Sommers) [1999 г., приключения, HDDVD Remux, 1080p] uzi2009
1 | 0

0 | 2348

7

06.03.2014 21:29

07-Янв-2020 12:52

Топик был перенесен из форума Новинки кино [CAMRip, TS, DVDScr, WP, TC] в форум Для поглощенных раздач

Причина переноса: https://underverse.su/viewtopic.php?t=96818
90ytr90
 

Яндекс.Метрика powered by Sphinx


В Н И М А Н И Е
Сайт не распространяет и не хранит электронные версии произведений, а лишь бесплатно и без коммерческой выгоды (не требуя взамен платы,
SMS и т.д.) предоставляет доступ к создаваемому пользователями каталогу ссылок на торрент-файлы, которые содержат только списки хеш-сумм.
Убедительная просьба с жалобами обращаться напрямую к пользователю, разместившему торрент файл.

Вверх