Loading...
Error

Интерны / Сезон: 7-8 / Серии: 127-160 (Мaксим Пeжемский, Заур Болотаев, Милан Килибарда, Евгений Невский, Радда Новикова) [2012-2013, Комедия, ситком, SATRip]

Статистика раздачи
Размер:  10,33 GB   |    Зарегистрирован:  6 лет 3 месяца   |    Скачан:  39 раз

Полного источника не было: 1 месяц 11 дней

Сидов:  0  |  0 KB/s  ]   Личеров:  0  |  0 KB/s  ]

* - сиды/пиры с внешних источников

   
 
Автор Сообщение

uzi2009 Пол:Муж

21-Фев-2014 10:56

Интерны


Год выпуска: 2012-2013
Производство: Россия, Comedy Club Production
Жанр: Комедия, ситком
Продолжительность: ~25 минут серия
Субтитры: Нет

Режиссёр: Мaксим Пeжемский, Заур Болотаев, Милан Килибарда, Евгений Невский, Радда Новикова

В ролях: Иван Охлобыстин, Илья Глинников, Кристина Асмус, Александр Ильин, Вадим Демчог, Светлана Камынина, Светлана Пермякова, Один Ланд Байрон, Дмитрий Шаракоис, Татьяна Лянник, Мария Пирогова, Лидия Арефьева, Максим Артамонов, Михаил Павлик, Татьяна Мухина, Елена Суркова и др.

Описание: Главные герои ситкома — четыре интерна. Они все время попадают в идиотские ситуации, а их руководитель доктор Быков с удовольствием за этим наблюдает. Доводить интернов до белого каления Быкову помогает друг доктор Купитман и мешает главврач больницы Анастасия Кисегач.

Качество: SATRip
Формат: AVI
Видео кодек: XviD
Аудио кодек: MP3
Видео: 720x400, 25 fps, XviD build 64 ~1641 kbps avg, 0.23 bit/pixel
Аудио: 48 kHz, MP3, 2/0 (L,R) ch, ~128 kbps
Общее
Полное имя : D:\Интерны (7-8 сезоны)\Интерны (7 сезон)\Интерны 127.avi
Формат : AVI
Формат/Информация : Audio Video Interleave
Размер файла : 311 Мбайт
Продолжительность : 24 м.
Общий поток : 1779 Кбит/сек
Библиотека кодирования : VirtualDub build 34807/release

Видео
Идентификатор : 0
Формат : MPEG-4 Visual
Профиль формата : Advanced Simple@L5
Параметр BVOP формата : 2
Параметр QPel формата : Нет
Параметр GMC формата : Без точки перехода
Параметр матрицы формата : Default (H.263)
Идентификатор кодека : XVID
Идентификатор кодека/Подсказка : XviD
Продолжительность : 24 м.
Битрейт : 1641 Кбит/сек
Ширина : 720 пикселей
Высота : 400 пикселей
Соотношение сторон : 16:9
Частота кадров : 25,000 кадров/сек
Цветовое пространство : YUV
Субдискретизация насыщенности : 4:2:0
Битовая глубина : 8 бит
Тип развёртки : Прогрессивная
Метод сжатия : С потерями
Бит/(Пиксели*Кадры) : 0.228
Размер потока : 287 Мбайт (92%)
Библиотека кодирования : XviD 64

Аудио
Идентификатор : 1
Формат : MPEG Audio
Версия формата : Version 1
Профиль формата : Layer 3
Режим : Joint stereo
Расширение режима : MS Stereo
Идентификатор кодека : 55
Идентификатор кодека/Подсказка : MP3
Продолжительность : 24 м.
Вид битрейта : Постоянный
Битрейт : 128 Кбит/сек
Каналы : 2 канала
Частота : 48,0 КГц
Метод сжатия : С потерями
Размер потока : 22,3 Мбайт (7%)
Выравнивание : Разделение по промежуткам
Продолжительность промежутка : 40 мс. (1,00 видеокадр)
Время предзагрузки промежутка : 500 мс.
pic pic pic

Этот торрент недоступен для скачивания без регистрации, однако доступен по публичной magnet-ссылке (источники с публичных трекеров). Перед использованием ссылки прочтите, пожалуйста Пользовательское соглашение, а также как можно дольше оставайтесь на раздаче! Для того, чтобы скачать сам торрент-файл (который видит больше источников), а также для того, чтобы поблагодарить релизера, вам необходимо зарегистрироваться. Если регистрироваться лень - вы можете также попробовать скачать релиз по нашим партнерским ссылкам ниже. Кроме того, зарегистрированным пользователям не показывается всплывающая реклама при скачивании.

[underverse.su].t36541.torrent
Трекер: Зарегистрирован   [ 21.02.2014 10:56 ]  

Статус: проверено (by Паукан at 02.07.2018 14:08)
Поблагодарили: пока никто не поблагодарил...
Тип торрента: публичный - доступные источники с открытых трекеров: 
Размер: 10,33 GB (занимает 2,36 DVDR, для записи нужно 3 болванки DVDR/RW)
 
 
Похожие темы
Форум Тема Автор Торрент Отв. Посл. сооб.
xUSSR сериалы Интерны / Сезон: 9 / Серии: 1-20 (161-180) из 180 (Мaксим Пeжемский, Рaдда Новиковa) [2013, Комедия, ситком, SATRip] uzi2009
0 | 0

0 | 3244

58

21.02.2014 11:02

xUSSR сериалы Интерны / Новогодняя Серия (Мaксим Пeжемский, Рaдда Новиковa) [2013, Комедия, ситком, WEB-DLRip] garry
2 | 0

0 | 1605

20

25.02.2014 04:45

Архив (Сериалы) Интерны / Сезон: 10 / Серии: 1-20 (181-200) из 20 (Максим Пежемский, Радда Новикова) [2013, Комедия, ситком, SATRip] uzi2009
0 | 0

6 | 4863

25

31.01.2018 17:05

Архив (Сериалы) Интерны / Сезон: 1-6 / Серии: 1-120 (Мaксим Пeжемский, Заур Болотаев, Милан Килибарда, Евгений Невский, Радда Новикова) [2010-2012, Комедия, ситком, DVDRip] uzi2009
0 | 0

1 | 3173

36

20.03.2019 22:01

Архив (Сериалы) Интерны / Сезон: 7 / Серии: 121-126 (Мaксим Пeжемский, Заур Болотаев, Милан Килибарда, Евгений Невский, Радда Новикова) [2012, Комедия, ситком, SATRip] garry
5 | 0

1 | 1743

16

31.01.2018 17:05


Яндекс.Метрика powered by Sphinx


В Н И М А Н И Е
Сайт не распространяет и не хранит электронные версии произведений, а лишь бесплатно и без коммерческой выгоды (не требуя взамен платы,
SMS и т.д.) предоставляет доступ к создаваемому пользователями каталогу ссылок на торрент-файлы, которые содержат только списки хеш-сумм.
Убедительная просьба с жалобами обращаться напрямую к пользователю, разместившему торрент файл.

Вверх