Loading...
Error

(Pop, Oldies) Bobby Vinton - Blue Velvet. His Greatest Hits (1997) [FLAC (Image+.CUE), Lossless]

Статистика раздачи
Размер:  319 MB   |    Зарегистрирован:  6 лет 11 месяцев   |    Скачан:  12 раз

Полного источника не было: 30 дней

Сидов:  0  |  0 KB/s  ]   Личеров:  0  |  0 KB/s  ]

* - сиды/пиры с внешних источников

   
 
Автор Сообщение

Бишеп Пол:Муж

03-Дек-2013 15:18

Bobby Vinton - Blue Velvet. His Greatest Hits

Жанр: Pop, Oldies
Год выпуска: 1997
Производитель диска: Epic - 487167 2
Аудиокодек: FLAC
Тип рипа: Image+.CUE
Битрейт аудио: Lossless
Продолжительность: 00:51:59
Треклист:
01. Blue Velvet
02. Roses Are Red (My Love)
03. Sealed With A Kiss
04. Venus
05. The Great Pretender
06. Earth Angel (Will You Be Mine)
07. Only You
08. Unchained Melody
09. When I Fall In Love
10. Mr. Lonely
11. Take Good Care Of My Baby
12. Raindrops Keep Falling On My Head
13. Blue Moon
14. Rain Rain Go Away
15. L-O-N-E-L-Y
16. Tell Me Why
17. There! I've Said It Again
18. I Love How You Love Me
19. My Heart Belongs To Only You
20. True Love

Exact Audio Copy V0.99 prebeta 5 from 4. May 2009

Отчёт EAC об извлечении, выполненном 20. октября 2010, 22:37

Bobby Vinton / Blue Velvet-His Greatest Hits

Дисковод: PIONEER DVD-RW DVR-212 Adapter: 0 ID: 0

Режим чтения : Достоверность
Использование точного потока : Да
Отключение кэша аудио : Да
Использование указателей C2 : Нет

Коррекция смещения при чтении : 48
Способность читать области Lead-in и Lead-out : Нет
Заполнение пропущенных сэмплов тишиной : Да
Удаление блоков с тишиной в начале и конце : Нет
При вычислениях CRC использовались нулевые сэмплы : Да
Интерфейс : Встроенный Win32-интерфейс для Win NT/2000

Выходной формат : Пользовательский кодировщик
Выбранный битрейт : 1024 kBit/s
Качество : Высокий
Добавление ID3-тэга : Да
Утилита сжатия : C:\Program Files\Exact Audio Copy\Flac\flac.exe
Дополнительные параметры : -8 -V -T "artist=%a" -T "title=%t" -T "album=%g" -T "date=%y" -T "tracknumber=%n" -T "genre=%m" -5 %s

TOC извлечённого CD

Трек | Старт | Длительность | Начальный сектор | Конечный сектор
---------------------------------------------------------------------
1 | 0:00.00 | 2:49.12 | 0 | 12686
2 | 2:49.12 | 2:38.25 | 12687 | 24561
3 | 5:27.37 | 2:49.63 | 24562 | 37299
4 | 8:17.25 | 2:20.25 | 37300 | 47824
5 | 10:37.50 | 2:50.50 | 47825 | 60624
6 | 13:28.25 | 2:11.25 | 60625 | 70474
7 | 15:39.50 | 2:25.25 | 70475 | 81374
8 | 18:05.00 | 2:45.12 | 81375 | 93761
9 | 20:50.12 | 2:18.25 | 93762 | 104136
10 | 23:08.37 | 2:41.13 | 104137 | 116224
11 | 25:49.50 | 2:46.62 | 116225 | 128736
12 | 28:36.37 | 2:49.50 | 128737 | 141461
13 | 31:26.12 | 2:43.38 | 141462 | 153724
14 | 34:09.50 | 2:55.12 | 153725 | 166861
15 | 37:04.62 | 2:25.00 | 166862 | 177736
16 | 39:29.62 | 2:36.50 | 177737 | 189486
17 | 42:06.37 | 2:21.25 | 189487 | 200086
18 | 44:27.62 | 2:30.25 | 200087 | 211361
19 | 46:58.12 | 2:42.63 | 211362 | 223574
20 | 49:41.00 | 2:18.17 | 223575 | 233941

Характеристики диапазона извлечения и сообщения об ошибках

Выбранный диапазон

Имя файла C:\Documents and Settings\user\Рабочий стол\Импорт CD\Music\Compilations\Bobby Vinton - Blue Velvet-His Greatest Hits.wav

Пиковый уровень 98.0 %
Качество диапазона 100.0 %
CRC теста 387E8C02
CRC копии 387E8C02
Копирование... OK

Ошибок не произошло

AccurateRip: сводка
Трек 1 точное извлечение (доверие 2) [D11CB331]
Трек 2 точное извлечение (доверие 2) [00E58A7F]
Трек 3 точное извлечение (доверие 2) [B4A5623D]
Трек 4 точное извлечение (доверие 2) [CF928DD1]
Трек 5 точное извлечение (доверие 2) [7C0C0214]
Трек 6 точное извлечение (доверие 2) [E3DFD9F0]
Трек 7 точное извлечение (доверие 2) [99540793]
Трек 8 точное извлечение (доверие 2) [A2281572]
Трек 9 точное извлечение (доверие 2) [C1AC3ED3]
Трек 10 точное извлечение (доверие 2) [A83712DE]
Трек 11 точное извлечение (доверие 2) [DB27407D]
Трек 12 точное извлечение (доверие 2) [13ADE985]
Трек 13 точное извлечение (доверие 2) [2CDC208A]
Трек 14 точное извлечение (доверие 2) [248B933B]
Трек 15 точное извлечение (доверие 2) [27785972]
Трек 16 точное извлечение (доверие 2) [C5D681B5]
Трек 17 точное извлечение (доверие 2) [FF65C85C]
Трек 18 точное извлечение (доверие 2) [C2FC2C61]
Трек 19 точное извлечение (доверие 2) [3676162C]
Трек 20 точное извлечение (доверие 2) [2E90AD53]
Все треки извлечены точно

Конец отчёта
AUDIOCHECKER v2.0 beta (build 457) - by Dester - opdester@freemail.hu
~~~~~~~~~~~~~~~~~~~~~~~~~~~~~~~~~~
-=== НЕ РЕДАКТИРУЙТЕ ЭТОТ ФАЙЛ! ===-

Путь: ...\Bobby Vinton - Blue Velvet-His Greatest Hits

1 -=- Bobby Vinton - Blue Velvet-His Greatest Hits.flac -=- CDDA (100%)

152757188

Этот торрент недоступен для скачивания без регистрации, однако доступен по публичной magnet-ссылке (источники с публичных трекеров). Перед использованием ссылки прочтите, пожалуйста Пользовательское соглашение, а также как можно дольше оставайтесь на раздаче! Для того, чтобы скачать сам торрент-файл (который видит больше источников), а также для того, чтобы поблагодарить релизера, вам необходимо зарегистрироваться. Если регистрироваться лень - вы можете также попробовать скачать релиз по нашим партнерским ссылкам ниже. Кроме того, зарегистрированным пользователям не показывается всплывающая реклама при скачивании.

[underverse.su].t33777.torrent
Трекер: Зарегистрирован   [ 03.12.2013 15:18 ]  

Статус: проверено (by Бишеп at 03.12.2013 16:55)
Поблагодарили: 1 человек
Тип торрента: публичный - доступные источники с открытых трекеров: 
Размер: 319 MB (занимает 0,07 DVDR, для записи нужно 1 болванка DVDR/RW)
 
 

Бишеп Пол:Муж

03-Дек-2013 15:20


Яндекс.Метрика powered by Sphinx


В Н И М А Н И Е
Сайт не распространяет и не хранит электронные версии произведений, а лишь бесплатно и без коммерческой выгоды (не требуя взамен платы,
SMS и т.д.) предоставляет доступ к создаваемому пользователями каталогу ссылок на торрент-файлы, которые содержат только списки хеш-сумм.
Убедительная просьба с жалобами обращаться напрямую к пользователю, разместившему торрент файл.

Вверх