Loading...
Error

(House, Disco) Digital Emotion - Greatest Hits (2007) [FLAC (Tracks+.CUE), Lossless]

Статистика раздачи
Размер:  556 MB   |    Зарегистрирован:  5 лет 9 месяцев   |    Скачан:  8 раз
Сидов:  1  |  0 KB/s  ]   Личеров:  0  |  0 KB/s  ]

* - сиды/пиры с внешних источников

   
 
Автор Сообщение

Бишеп Пол:Муж

03-Июн-2012 09:22

Digital Emotion - Greatest Hits

Жанр: House, Disco
Год выпуска: 2007
Производитель диска: Blanco Y Negro - MASCOLCD 003 (CS)
Аудиокодек: FLAC
Тип рипа: Tracks+.CUE
Битрейт аудио: lossless
Продолжительность: 01:17:23


Треклист:
01. Don't Stop
02. Get Up, Do You Wanna Funk (Special FX Mix)
03. Go Go Yellow Screen
04. Steppin' Out (Special Mix)
05. Humanity
06. Electric Love
07. The Beauty And The Beast
08. Time (Back In Time)
09. Down Get Down
10. Reach Out I'll Be There
11. Get Up (Re.Mix.Make)
12. Super Mega Mix

Exact Audio Copy V1.0 beta 3 from 29. August 2011

EAC extraction logfile from 22. September 2014, 18:17

Digital Emotion / Greatest Hits

Used drive : HL-DT-STDVDRAM GSA-T10N Adapter: 0 ID: 0

Read mode : Secure
Utilize accurate stream : Yes
Defeat audio cache : Yes
Make use of C2 pointers : No

Read offset correction : 667
Overread into Lead-In and Lead-Out : No
Fill up missing offset samples with silence : Yes
Delete leading and trailing silent blocks : No
Null samples used in CRC calculations : Yes
Used interface : Installed external ASPI interface
Gap handling : Appended to previous track

Used output format : User Defined Encoder
Selected bitrate : 1024 kBit/s
Quality : High
Add ID3 tag : No
Command line compressor : D:\Program Files\Foobar2000\encoders\flac.exe
Additional command line options : -V -8 -T "Date=%year%" -T "Genre=%genre%" %source%

TOC of the extracted CD

Track | Start | Length | Start sector | End sector
---------------------------------------------------------
1 | 0:00.00 | 5:38.53 | 0 | 25402
2 | 5:38.53 | 4:46.35 | 25403 | 46887
3 | 10:25.13 | 6:04.08 | 46888 | 74195
4 | 16:29.21 | 5:27.02 | 74196 | 98722
5 | 21:56.23 | 8:49.05 | 98723 | 138402
6 | 30:45.28 | 5:03.09 | 138403 | 161136
7 | 35:48.37 | 5:07.46 | 161137 | 184207
8 | 40:56.08 | 6:41.28 | 184208 | 214310
9 | 47:37.36 | 9:07.33 | 214311 | 255368
10 | 56:44.69 | 6:51.43 | 255369 | 286236
11 | 63:36.37 | 6:18.29 | 286237 | 314615
12 | 69:54.66 | 7:28.34 | 314616 | 348249

Track 1

Filename D:\Desktop - копия\Digital Emotion - Greatest Hits (2007)\01 Don't Stop.wav

Pre-gap length 0:00:02.00

Peak level 100.0 %
Extraction speed 2.6 X
Track quality 100.0 %
Test CRC F0C16228
Copy CRC F0C16228
Accurately ripped (confidence 5) [CA552337] (AR v2)
Copy OK

Track 2

Filename D:\Desktop - копия\Digital Emotion - Greatest Hits (2007)\02 Get Up, Do You Wanna Funk (Special FX Mix).wav

Pre-gap length 0:00:02.00

Peak level 76.0 %
Extraction speed 2.5 X
Track quality 99.9 %
Test CRC 760EC18D
Copy CRC 760EC18D
Accurately ripped (confidence 5) [B2C32F95] (AR v2)
Copy OK

Track 3

Filename D:\Desktop - копия\Digital Emotion - Greatest Hits (2007)\03 Go Go Yellow Screen.wav

Pre-gap length 0:00:02.00

Peak level 79.8 %
Extraction speed 3.1 X
Track quality 100.0 %
Test CRC E1CAA22E
Copy CRC E1CAA22E
Accurately ripped (confidence 5) [97CF0BD5] (AR v2)
Copy OK

Track 4

Filename D:\Desktop - копия\Digital Emotion - Greatest Hits (2007)\04 Steppin' Out (Special Mix).wav

Pre-gap length 0:00:02.00

Peak level 66.1 %
Extraction speed 3.0 X
Track quality 99.9 %
Test CRC 8F2316C4
Copy CRC 8F2316C4
Accurately ripped (confidence 5) [6354A1F2] (AR v2)
Copy OK

Track 5

Filename D:\Desktop - копия\Digital Emotion - Greatest Hits (2007)\05 Humanity.wav

Pre-gap length 0:00:02.00

Peak level 73.7 %
Extraction speed 3.7 X
Track quality 100.0 %
Test CRC 68886EBD
Copy CRC 68886EBD
Accurately ripped (confidence 5) [B0267B53] (AR v2)
Copy OK

Track 6

Filename D:\Desktop - копия\Digital Emotion - Greatest Hits (2007)\06 Electric Love.wav

Pre-gap length 0:00:02.00

Peak level 67.8 %
Extraction speed 3.5 X
Track quality 99.9 %
Test CRC F2E7DA65
Copy CRC F2E7DA65
Accurately ripped (confidence 5) [B74CB8E1] (AR v2)
Copy OK

Track 7

Filename D:\Desktop - копия\Digital Emotion - Greatest Hits (2007)\07 The Beauty And The Beast.wav

Pre-gap length 0:00:02.00

Peak level 84.9 %
Extraction speed 4.0 X
Track quality 100.0 %
Test CRC 719590D5
Copy CRC 719590D5
Accurately ripped (confidence 5) [F1F0032F] (AR v2)
Copy OK

Track 8

Filename D:\Desktop - копия\Digital Emotion - Greatest Hits (2007)\08 Time (Back In Time).wav

Pre-gap length 0:00:02.00

Peak level 68.0 %
Extraction speed 4.0 X
Track quality 99.9 %
Test CRC 7B0ED7F0
Copy CRC 7B0ED7F0
Accurately ripped (confidence 5) [799EA059] (AR v2)
Copy OK

Track 9

Filename D:\Desktop - копия\Digital Emotion - Greatest Hits (2007)\09 Down Get Down.wav

Pre-gap length 0:00:02.00

Peak level 64.0 %
Extraction speed 4.4 X
Track quality 99.9 %
Test CRC 4337B5FC
Copy CRC 4337B5FC
Accurately ripped (confidence 5) [1E321C73] (AR v2)
Copy OK

Track 10

Filename D:\Desktop - копия\Digital Emotion - Greatest Hits (2007)\10 Reach Out I'll Be There.wav

Pre-gap length 0:00:02.00

Peak level 87.6 %
Extraction speed 4.7 X
Track quality 100.0 %
Test CRC 86B83059
Copy CRC 86B83059
Accurately ripped (confidence 5) [DA6FAEFD] (AR v2)
Copy OK

Track 11

Filename D:\Desktop - копия\Digital Emotion - Greatest Hits (2007)\11 Get Up (Re.Mix.Make).wav

Pre-gap length 0:00:02.00

Peak level 100.0 %
Extraction speed 5.0 X
Track quality 100.0 %
Test CRC BEFB7CBA
Copy CRC BEFB7CBA
Accurately ripped (confidence 5) [29AF530B] (AR v2)
Copy OK

Track 12

Filename D:\Desktop - копия\Digital Emotion - Greatest Hits (2007)\12 Super Mega Mix.wav

Pre-gap length 0:00:02.00

Peak level 83.1 %
Extraction speed 5.1 X
Track quality 100.0 %
Test CRC D31E78C9
Copy CRC D31E78C9
Accurately ripped (confidence 5) [BD096E9A] (AR v2)
Copy OK

All tracks accurately ripped

No errors occurred

End of status report

==== Log checksum 7AA283E9FD983A832BF703E33028BF9E45BA8B6A0D6DAC4FDCAEE45EBAAF3D7A ====

REM GENRE House
REM DATE 2007
REM DISCID B412230C
REM COMMENT "ExactAudioCopy v1.0b3"
PERFORMER "Digital Emotion"
TITLE "Greatest Hits"
FILE "01 Don't Stop.wav" WAVE
TRACK 01 AUDIO
TITLE "Don't Stop"
PERFORMER "Digital Emotion"
FLAGS DCP
INDEX 01 00:00:00
TRACK 02 AUDIO
TITLE "Get Up, Do You Wanna Funk (Special FX Mix)"
PERFORMER "Digital Emotion"
FLAGS DCP
INDEX 00 05:36:53
FILE "02 Get Up, Do You Wanna Funk (Special FX Mix).wav" WAVE
INDEX 01 00:00:00
TRACK 03 AUDIO
TITLE "Go Go Yellow Screen"
PERFORMER "Digital Emotion"
FLAGS DCP
INDEX 00 04:44:35
FILE "03 Go Go Yellow Screen.wav" WAVE
INDEX 01 00:00:00
TRACK 04 AUDIO
TITLE "Steppin' Out (Special Mix)"
PERFORMER "Digital Emotion"
FLAGS DCP
INDEX 00 06:02:08
FILE "04 Steppin' Out (Special Mix).wav" WAVE
INDEX 01 00:00:00
TRACK 05 AUDIO
TITLE "Humanity"
PERFORMER "Digital Emotion"
FLAGS DCP
INDEX 00 05:25:02
FILE "05 Humanity.wav" WAVE
INDEX 01 00:00:00
TRACK 06 AUDIO
TITLE "Electric Love"
PERFORMER "Digital Emotion"
FLAGS DCP
INDEX 00 08:47:05
FILE "06 Electric Love.wav" WAVE
INDEX 01 00:00:00
TRACK 07 AUDIO
TITLE "The Beauty And The Beast"
PERFORMER "Digital Emotion"
FLAGS DCP
INDEX 00 05:01:09
FILE "07 The Beauty And The Beast.wav" WAVE
INDEX 01 00:00:00
TRACK 08 AUDIO
TITLE "Time (Back In Time)"
PERFORMER "Digital Emotion"
FLAGS DCP
INDEX 00 05:05:46
FILE "08 Time (Back In Time).wav" WAVE
INDEX 01 00:00:00
TRACK 09 AUDIO
TITLE "Down Get Down"
PERFORMER "Digital Emotion"
FLAGS DCP
INDEX 00 06:39:28
FILE "09 Down Get Down.wav" WAVE
INDEX 01 00:00:00
TRACK 10 AUDIO
TITLE "Reach Out I'll Be There"
PERFORMER "Digital Emotion"
FLAGS DCP
INDEX 00 09:05:33
FILE "10 Reach Out I'll Be There.wav" WAVE
INDEX 01 00:00:00
TRACK 11 AUDIO
TITLE "Get Up (Re.Mix.Make)"
PERFORMER "Digital Emotion"
FLAGS DCP
INDEX 00 06:49:43
FILE "11 Get Up (Re.Mix.Make).wav" WAVE
INDEX 01 00:00:00
TRACK 12 AUDIO
TITLE "Super Mega Mix"
PERFORMER "Digital Emotion"
FLAGS DCP
INDEX 00 06:16:29
FILE "12 Super Mega Mix.wav" WAVE
INDEX 01 00:00:00

Этот торрент недоступен для скачивания без регистрации, однако доступен по публичной magnet-ссылке (источники с публичных трекеров). Перед использованием ссылки прочтите, пожалуйста Пользовательское соглашение, а также как можно дольше оставайтесь на раздаче! Для того, чтобы скачать сам торрент-файл (который видит больше источников), а также для того, чтобы поблагодарить релизера, вам необходимо зарегистрироваться. Если регистрироваться лень - вы можете также попробовать скачать релиз по нашим партнерским ссылкам ниже. Кроме того, зарегистрированным пользователям не показывается всплывающая реклама при скачивании.

[underverse.su].t44267.torrent
Трекер: Зарегистрирован   [ 26.09.2014 05:47 ]  

Статус: проверено (by Бишеп at 26.09.2014 05:48)
Поблагодарили: пока никто не поблагодарил...
Тип торрента: публичный - доступные источники с открытых трекеров: 
Размер: 556 MB (занимает 0,12 DVDR, для записи нужно 1 болванка DVDR/RW)
 
 
Похожие темы
Форум Тема Автор Торрент Отв. Посл. сооб.
Сборники (House, Disco,Dance,Nu-Disco) VA - Italian Style Everlasting Italo Dance Compilation, Vol. 6 (2017) [MP3, 320 kbps CBR] Evgenii82
0 | 0

0 | 1112

2

30.01.2017 12:07

Сборники (House, Disco House, Euro Dance) VA - The Best Of Disco House (2CD) (2018) [MP3, 320 kbps CBR] 90ytr90
9 | 1

0 | 502

3

23.07.2018 20:29

House (Lossless) (House, Disco) Blondie - Heart Of Glass (Maxi-Single) (1995) [FLAC (Tracks+.CUE), Lossless] Бишеп
2 | 0

0 | 1594

3

08.02.2015 17:27


Яндекс.Метрика powered by Sphinx


В Н И М А Н И Е
Сайт не распространяет и не хранит электронные версии произведений, а лишь бесплатно и без коммерческой выгоды (не требуя взамен платы,
SMS и т.д.) предоставляет доступ к создаваемому пользователями каталогу ссылок на торрент-файлы, которые содержат только списки хеш-сумм.
Убедительная просьба с жалобами обращаться напрямую к пользователю, разместившему торрент файл.

Вверх