Loading...
Error

Сельский детектив. Яблоня раздора / Сезон: 1 / Серии: 1-2 из 2 (Сахат Дурсунов) [2019, Детектив, криминал, WEB-DL 1080p]

Статистика раздачи
Размер:  3,43 GB   |    Зарегистрирован:  8 дней   |    Скачан:  1 раз

Полного источника не было: 7 дней

Сидов:  0  |  0 KB/s  ]   Личеров:  0  |  0 KB/s  ]

* - сиды/пиры с внешних источников

   
 
Автор Сообщение

Konin Пол:Муж

17-Окт-2020 17:54

Сельский детектив. Яблоня раздора

Год выпуска: 2019
Выпущено: Россия
Студия: Сила
Жанр: Детектив, криминал
Продолжительность: ~ 00:46:00
Перевод: Не требуется
Режиссер:
Сахат Дурсунов
В ролях:
Олеся Фаттахова, Александр Пашутин, Алексей Демидов, Данила Якушев, Елена Цыплакова, Павел Белозёров, Надежда Бахтина, Наталья Лукеичева, Алексей Овсянников, Анна Сафронова, Ксения Худоба, Артём Федотов, Нина Есина
О фильме
Олеся Федосеева – городская девушка со скучной работой и полным штилем в личной жизни. Однажды она узнает, что ее дед Василий подозревается в убийстве соседа, егеря Степана Блинова. Василий живет в деревне и в силу вредного характера не поддерживает никаких отношений ни с дочерью, ни с внучкой. Олеся решает навестить деда, который, доказывая невиновность, распереживался и, попав в больницу, просит приглядеть за его хозяйством.

Качество: WEB-DL 1080p
Формат: MKV
Видео: 1920х1080 (16:9), 25 fps, AVC MPEG-4 (x264), High@L4 ~ 5000 kbps avg, 0.096 bit/pixel
Звук: 48 kHz, AC3, 2 ch, 256 kbps avg
Субтитры: Отсутствуют
Общее
Уникальный идентификатор : 246557075475253921769428285291622873145 (0xB97D2A5BF8079DB4A766AB5933B8B839)
Полное имя : G:Selskiy.detektiv.Yablonya.razdora.2019.WEB-DL.(1080p).ExKinoRaySelskiy.detektiv.Yablonya.razdora.E01.2019.WEB-DL.(1080p).ExKinoRay.mkv
Формат : Matroska
Версия формата : Version 4 / Version 2
Размер файла : 1,75 Гбайт
Продолжительность : 46 м. 35 с.
Общий поток : 5373 Кбит/сек
Дата кодирования : UTC 2019-10-26 02:40:20
Программа кодирования : mkvmerge v6.9.1 ('Blue Panther') 64bit built on Apr 18 2014 18:23:38
Библиотека кодирования : libebml v1.3.0 + libmatroska v1.4.1
Видео
Идентификатор : 1
Формат : AVC
Формат/Информация : Advanced Video Codec
Профиль формата : High@L4
Настройки формата : CABAC / 4 Ref Frames
Параметр CABAC формата : Да
Параметр RefFrames формата : 4 кадра
Идентификатор кодека : V_MPEG4/ISO/AVC
Продолжительность : 46 м. 35 с.
Битрейт : 5010 Кбит/сек
Ширина : 1920 пикселей
Высота : 1080 пикселей
Соотношение сторон : 16:9
Режим частоты кадров : Постоянный
Частота кадров : 25,000 кадров/сек
Цветовое пространство : YUV
Субдискретизация насыщенности : 4:2:0
Битовая глубина : 8 бит
Тип развёртки : Прогрессивная
Бит/(Пиксели*Кадры) : 0.097
Размер потока : 1,63 Гбайт (93%)
Default : Да
Forced : Нет
Аудио
Идентификатор : 2
Формат : AC-3
Формат/Информация : Audio Coding 3
Идентификатор кодека : A_AC3
Продолжительность : 46 м. 35 с.
Вид битрейта : Постоянный
Битрейт : 256 Кбит/сек
Каналы : 2 канала
Расположение каналов : Front: L R
Частота : 48,0 КГц
Частота кадров : 31,250 кадров/сек (1536 SPF)
Битовая глубина : 16 бит
Метод сжатия : С потерями
Размер потока : 85,3 Мбайт (5%)
Язык : Russian
Default : Да
Forced : Нет

Этот торрент недоступен для скачивания без регистрации, однако доступен по публичной magnet-ссылке (источники с публичных трекеров). Перед использованием ссылки прочтите, пожалуйста Пользовательское соглашение, а также как можно дольше оставайтесь на раздаче! Для того, чтобы скачать сам торрент-файл (который видит больше источников), а также для того, чтобы поблагодарить релизера, вам необходимо зарегистрироваться. Если регистрироваться лень - вы можете также попробовать скачать релиз по нашим партнерским ссылкам ниже. Кроме того, зарегистрированным пользователям не показывается всплывающая реклама при скачивании.

[underver.se].t185347.torrent
Трекер: Зарегистрирован   [ 17.10.2020 17:54 ]  

Статус: проверено (by Robbertta at 19.10.2020 03:54)
Поблагодарили: пока никто не поблагодарил...
Тип торрента: публичный - доступные источники с открытых трекеров: 
Размер: 3,43 GB (занимает 0,78 DVDR, для записи нужно 1 болванка DVDR/RW)
 
 
Похожие темы
Форум Тема Автор Торрент Отв. Посл. сооб.
xUSSR сериалы Сельский детектив. Иголка в стоге сена / Сезон: 3 / Серии: 1-4 из 4 (Сахат Дурсунов) [2020, Детектив, WEB-DLRip] Konin
150 | 2

0 | 166

7

17.10.2020 17:20

xUSSR сериалы Сельский детектив. Иголка в стоге сена / Сезон: 3 / Серии: 1-4 из 4 (Сахат Дурсунов) [2020, Детектив, WEB-DLRip-AVC] Konin
21 | 2

0 | 149

3

17.10.2020 17:22

xUSSR сериалы Сельский детектив. Яблоня раздора / Сезон: 1 / Серии: 1-2 из 2 (Сахат Дурсунов) [2019, Детектив, криминал, WEB-DLRip] Konin
79 | 3

0 | 117

3

17.10.2020 17:41

xUSSR сериалы Сельский детектив. Яблоня раздора / Сезон: 1 / Серии: 1-2 из 2 (Сахат Дурсунов) [2019, Детектив, криминал, WEB-DLRip-AVC] Konin
21 | 1

0 | 104

2

17.10.2020 17:41

xUSSR сериалы Сельский детектив. Месть Чернобога / Сезон: 2 / Серии: 1-2 из 2 (Сахат Дурсунов) [2020, Детектив, WEB-DLRip] Konin
86 | 2

0 | 115

4

17.10.2020 17:42

xUSSR сериалы Сельский детектив. Месть Чернобога / Сезон: 2 / Серии: 1-2 из 2 (Сахат Дурсунов) [2020, Детектив, WEB-DLRip-AVC] Konin
11 | 0

0 | 107

1

17.10.2020 17:44

xUSSR сериалы Сельский детектив. Яблоня раздора / Сезон: 1 / Серии: 1-2 из 2 (Сахат Дурсунов) [2019, Детектив, криминал, SATRip-AVC] Konin
19 | 0

0 | 121

4

17.10.2020 17:49

xUSSR сериалы Сельский детектив. Месть Чернобога / Сезон: 2 / Серии: 1-2 из 2 (Сахат Дурсунов) [2020, Детектив, SATRip-AVC] Konin
26 | 0

0 | 105

4

17.10.2020 17:50

xUSSR сериалы Сельский детектив. Иголка в стоге сена / Сезон: 3 / Серии: 1-4 из 4 (Сахат Дурсунов) [2020, Детектив, SATRip-AVC] Konin
15 | 0

0 | 140

2

18.10.2020 11:03

xUSSR сериалы Сельский детектив. Ловушка для мертвеца / Сезон: 4 / Серии: 1-2 из 2 (Валерий Девятилов) [2020, детектив, SATRip-AVC] Konin
37 | 2

0 | 157

3

18.10.2020 11:08


Яндекс.Метрика powered by Sphinx


В Н И М А Н И Е
Сайт не распространяет и не хранит электронные версии произведений, а лишь бесплатно и без коммерческой выгоды (не требуя взамен платы,
SMS и т.д.) предоставляет доступ к создаваемому пользователями каталогу ссылок на торрент-файлы, которые содержат только списки хеш-сумм.
Убедительная просьба с жалобами обращаться напрямую к пользователю, разместившему торрент файл.

Вверх