Loading...
Error

Переводчики / Les traducteurs (Режис Руансар) [2019, Триллер, BDRip 1080p] Dub (iTunes) + Original

Статистика раздачи
Размер:  8,27 GB   |    Зарегистрирован:  3 месяца 6 дней   |    Скачан:  20 раз
Сидов:  1  |  16 KB/s  ]   Личеров:  0  |  0 KB/s  ]

* - сиды/пиры с внешних источников

   
 
Автор Сообщение

Konin Пол:Муж

12-Июн-2020 01:30

Переводчики / Les traducteurs

Страна: Франция, Бельгия
Студия: Trésor Films, Mars Films, France 2 Cinéma
Год выхода: 2019
Жанр: Триллер
Продолжительность: 01:45:01
Перевод: Дублированный | iTunes
Режиссер:
Режис Руансар
В ролях:
Ламбер Вильсон, Ольга Куриленко, Риккардо Скамарчо, Сидсе Бабетт Кнудсен, Эдуардо Норьега, Алекс Лоутер, Анна Мария Штурм, Фредерик Шо, Мария Лейте, Манолис Мавроматакис
О фильме:
Девять переводчиков работают в секретном бункере над последней частью самого нашумевшего бестселлера. Их изолировали, чтобы не допустить утечки ожидаемой новинки в интернет. Но она все-таки произошла..

Качество: BDRip 1080p
Формат: MKV
Видео: MPEG-4 AVC, 1920x804, 10.3 Mbit/s, 24.000 fps
Аудио #01: 48 kHz, AC3, 5.1, 384 Kbps | iTunes | RUS |
Аудио #02: 48 kHz, AC3, 5.1, 640 Kbps | Оригинал | FRE |
Субтитры: Нет
General
Unique ID : 261941434436790753048614655243280658056 (0xC51015D15AEB5017B539099F98732E88)
Complete name : E:Video111Les.Traducteurs.2019.BDRip.1080p.seleZen.mkv
Format : Matroska
Format version : Version 4
File size : 8.27 GiB
Duration : 1 h 45 min
Overall bit rate : 11.3 Mb/s
Movie name : Les Traducteurs 2019 from селезень
Encoded date : UTC 2020-06-12 01:16:04
Writing application : mkvmerge v40.0.0 ('Old Town Road + Pony') 64-bit
Writing library : libebml v1.3.9 + libmatroska v1.5.2
Video
ID : 1
Format : AVC
Format/Info : Advanced Video Codec
Format profile : High@L4.1
Format settings : CABAC / 5 Ref Frames
Format settings, CABAC : Yes
Format settings, Reference : 5 frames
Codec ID : V_MPEG4/ISO/AVC
Duration : 1 h 45 min
Bit rate : 10.3 Mb/s
Width : 1 920 pixels
Height : 804 pixels
Display aspect ratio : 2.40:1
Frame rate mode : Constant
Frame rate : 24.000 FPS
Color space : YUV
Chroma subsampling : 4:2:0
Bit depth : 8 bits
Scan type : Progressive
Bits/(Pixel*Frame) : 0.277
Stream size : 7.52 GiB (91%)
Title : Encoded by seleZen
Writing library : x264 core 142 r2431+42 c69a006 tMod [8-bit@all X86_64]
Encoding settings : cabac=1 / ref=5 / deblock=1:-2:-2 / analyse=0x3:0x133 / me=umh / subme=10 / psy=1 / fade_compensate=0.00 / psy_rd=1.00:0.00 / mixed_ref=1 / me_range=32 / chroma_me=1 / trellis=2 / 8x8dct=1 / cqm=0 / deadzone=21,11 / fast_pskip=0 / chroma_qp_offset=-2 / threads=24 / lookahead_threads=4 / sliced_threads=0 / nr=0 / decimate=0 / interlaced=0 / bluray_compat=0 / constrained_intra=0 / fgo=0 / bframes=8 / b_pyramid=2 / b_adapt=2 / b_bias=0 / direct=3 / weightb=1 / open_gop=0 / weightp=2 / keyint=240 / keyint_min=24 / scenecut=40 / intra_refresh=0 / rc_lookahead=50 / rc=2pass / mbtree=0 / bitrate=10254 / ratetol=1.0 / qcomp=0.60 / qpmin=0:0:0 / qpmax=51:51:51 / qpstep=4 / cplxblur=20.0 / qblur=0.5 / vbv_maxrate=50000 / vbv_bufsize=62500 / nal_hrd=none / filler=0 / ip_ratio=1.40 / pb_ratio=1.30 / aq=3:0.80 / aq-sensitivity=10.00 / aq-factor=1.00:1.00:1.00 / aq2=0 / aq3=0
Language : English
Default : Yes
Forced : No
Audio #1
ID : 2
Format : AC-3
Format/Info : Audio Coding 3
Commercial name : Dolby Digital
Codec ID : A_AC3
Duration : 1 h 44 min
Bit rate mode : Constant
Bit rate : 384 kb/s
Channel(s) : 6 channels
Channel layout : L R C LFE Ls Rs
Sampling rate : 48.0 kHz
Frame rate : 31.250 FPS (1536 SPF)
Compression mode : Lossy
Stream size : 288 MiB (3%)
Title : iTunes
Language : Russian
Service kind : Complete Main
Default : Yes
Forced : Yes
Audio #2
ID : 3
Format : AC-3
Format/Info : Audio Coding 3
Commercial name : Dolby Digital
Codec ID : A_AC3
Duration : 1 h 45 min
Bit rate mode : Constant
Bit rate : 640 kb/s
Channel(s) : 6 channels
Channel layout : L R C LFE Ls Rs
Sampling rate : 48.0 kHz
Frame rate : 31.250 FPS (1536 SPF)
Compression mode : Lossy
Stream size : 481 MiB (6%)
Title : Original
Language : French
Service kind : Complete Main
Default : No
Forced : No
Menu
00:00:00.000 : fr:
00:10:58.708 : fr:
00:18:40.167 : fr:
00:28:19.458 : fr:
00:37:07.750 : fr:
00:46:38.042 : fr:
00:55:47.833 : fr:
01:06:03.917 : fr:
01:14:56.625 : fr:
01:26:36.375 : fr:
01:38:47.333 : fr:
Релиз от

Этот торрент недоступен для скачивания без регистрации, однако доступен по публичной magnet-ссылке (источники с публичных трекеров). Перед использованием ссылки прочтите, пожалуйста Пользовательское соглашение, а также как можно дольше оставайтесь на раздаче! Для того, чтобы скачать сам торрент-файл (который видит больше источников), а также для того, чтобы поблагодарить релизера, вам необходимо зарегистрироваться. Если регистрироваться лень - вы можете также попробовать скачать релиз по нашим партнерским ссылкам ниже. Кроме того, зарегистрированным пользователям не показывается всплывающая реклама при скачивании.

[underver.se].t170700.torrent
Трекер: Зарегистрирован   [ 12.06.2020 01:30 ]  

Статус: проверено (by makkol at 12.06.2020 11:51)
Поблагодарили: 2 человека
Тип торрента: публичный - доступные источники с открытых трекеров: 
Размер: 8,27 GB (занимает 1,89 DVDR, для записи нужно 2 болванки DVDR/RW)
 
 
Похожие темы
Форум Тема Автор Торрент Отв. Посл. сооб.
Зарубежное кино [DVDRip, Low-Res HDRip, и т.д.] Переводчики / Les traducteurs (Режис Руансар) [2019, Триллер, BDRip] Dub (iTunes) Konin
3 | 0

0 | 336

16

12.06.2020 06:25

Наше кино [DVDRip, Low-Res HDRip, и т.д.] Переводчик (Алексей Нужный) [2015 г., криминал, драма, WEB-DLRip] makkol
7 | 0

0 | 1133

61

13.12.2015 11:33

Зарубежное кино [DVD / HDDVD / BD / Remux] Переводчики / Les traducteurs (Режис Руансар) [2019, Триллер, BDRemux 1080p] Dub (iTunes) + Original Konin
17 | 0

0 | 323

6

11.06.2020 22:01

Зарубежное кино [HDDVDRip / BDRip / WEB-DL / HDTV 1080/720р] Переводчики / Les traducteurs (Режис Руансар) [2019, Триллер, BDRip 720p] Dub (iTunes) + Original Konin
55 | 0

0 | 303

9

12.06.2020 06:14

Наше кино [HDDVDRip / BDRip / WEB-DL / HDTV 1080/720р] Переводчик (Алексей Нужный) [2015 г., криминал, драма, WEB-DL 1080p] makkol
2 | 0

0 | 1051

36

13.12.2015 11:48

Архив (Сериалы) Переводчик [01-04 из 04] ( Андрей Прошкин) [2014 г., драма, военный, SatRip] konopic
1 | 0

1 | 910

24

31.01.2018 17:06


Яндекс.Метрика powered by Sphinx


В Н И М А Н И Е
Сайт не распространяет и не хранит электронные версии произведений, а лишь бесплатно и без коммерческой выгоды (не требуя взамен платы,
SMS и т.д.) предоставляет доступ к создаваемому пользователями каталогу ссылок на торрент-файлы, которые содержат только списки хеш-сумм.
Убедительная просьба с жалобами обращаться напрямую к пользователю, разместившему торрент файл.

Вверх