Loading...
Error

Переводчики / Les traducteurs (Режис Руансар) [2019, Триллер, BDRemux 1080p] Dub (iTunes) + Original

Статистика раздачи
Размер:  24,82 GB   |    Зарегистрирован:  3 месяца 7 дней   |    Скачан:  6 раз

Полного источника не было: 1 месяц 30 дней

Сидов:  0  |  0 KB/s  ]   Личеров:  0  |  0 KB/s  ]

* - сиды/пиры с внешних источников

   
 
Автор Сообщение

Konin Пол:Муж

11-Июн-2020 22:01

Переводчики / Les traducteurs

Страна: Франция, Бельгия
Студия: Trésor Films, Mars Films, France 2 Cinéma
Год выхода: 2019
Жанр: Триллер
Продолжительность: 01:45:01
Перевод: Дублированный | iTunes
Режиссер:
Режис Руансар
В ролях:
Ламбер Вильсон, Ольга Куриленко, Риккардо Скамарчо, Сидсе Бабетт Кнудсен, Эдуардо Норьега, Алекс Лоутер, Анна Мария Штурм, Фредерик Шо, Мария Лейте, Манолис Мавроматакис
О фильме:
Девять переводчиков работают в секретном бункере над последней частью самого нашумевшего бестселлера. Их изолировали, чтобы не допустить утечки ожидаемой новинки в интернет. Но она все-таки произошла..

Качество: BDRemux 1080p
Формат: MKV
Видео: MPEG-4 AVC, 1920x1080, 30.0 Mbit/s, 24.000 fps
Аудио #01: 48 kHz, AC3, 5.1, 384 Kbps | iTunes | RUS |
Аудио #02: 48 kHz, DTS-HD MA, 5.1, 3451 Kbps | Оригинал | FRE |
Субтитры: Нет
General
Unique ID : 233227640739851260204680255516169519712 (0xAF76027CBEDFA359284687B716F8C260)
Complete name : E:Video111Les.Traducteurs.2019.BDREMUX.1080p.seleZen.mkv
Format : Matroska
Format version : Version 4
File size : 24.8 GiB
Duration : 1 h 45 min
Overall bit rate mode : Variable
Overall bit rate : 33.8 Mb/s
Movie name : Les Traducteurs 2019 from селезень
Encoded date : UTC 2020-06-11 21:29:32
Writing application : mkvmerge v40.0.0 ('Old Town Road + Pony') 64-bit
Writing library : libebml v1.3.9 + libmatroska v1.5.2
Video
ID : 1
Format : AVC
Format/Info : Advanced Video Codec
Format profile : High@L4.1
Format settings : CABAC / 4 Ref Frames
Format settings, CABAC : Yes
Format settings, Reference : 4 frames
Codec ID : V_MPEG4/ISO/AVC
Duration : 1 h 45 min
Bit rate mode : Variable
Bit rate : 30.0 Mb/s
Maximum bit rate : 35.0 Mb/s
Width : 1 920 pixels
Height : 1 080 pixels
Display aspect ratio : 16:9
Frame rate mode : Constant
Frame rate : 24.000 FPS
Standard : NTSC
Color space : YUV
Chroma subsampling : 4:2:0
Bit depth : 8 bits
Scan type : Progressive
Bits/(Pixel*Frame) : 0.603
Stream size : 22.0 GiB (89%)
Language : French
Default : Yes
Forced : No
Color range : Limited
Color primaries : BT.709
Transfer characteristics : BT.709
Matrix coefficients : BT.709
Audio #1
ID : 2
Format : AC-3
Format/Info : Audio Coding 3
Commercial name : Dolby Digital
Codec ID : A_AC3
Duration : 1 h 44 min
Bit rate mode : Constant
Bit rate : 384 kb/s
Channel(s) : 6 channels
Channel layout : L R C LFE Ls Rs
Sampling rate : 48.0 kHz
Frame rate : 31.250 FPS (1536 SPF)
Compression mode : Lossy
Stream size : 288 MiB (1%)
Title : iTunes
Language : Russian
Service kind : Complete Main
Default : Yes
Forced : Yes
Audio #2
ID : 3
Format : DTS XLL
Format/Info : Digital Theater Systems
Commercial name : DTS-HD Master Audio
Codec ID : A_DTS
Duration : 1 h 45 min
Bit rate mode : Variable
Bit rate : 3 451 kb/s
Channel(s) : 6 channels
Channel layout : C L R Ls Rs LFE
Sampling rate : 48.0 kHz
Frame rate : 93.750 FPS (512 SPF)
Bit depth : 24 bits
Compression mode : Lossless
Stream size : 2.53 GiB (10%)
Title : Original
Language : French
Default : No
Forced : No
Menu
00:00:00.000 : fr:
00:10:58.708 : fr:
00:18:40.167 : fr:
00:28:19.458 : fr:
00:37:07.750 : fr:
00:46:38.042 : fr:
00:55:47.833 : fr:
01:06:03.917 : fr:
01:14:56.625 : fr:
01:26:36.375 : fr:
01:38:47.333 : fr:
Релиз от

Этот торрент недоступен для скачивания без регистрации, однако доступен по публичной magnet-ссылке (источники с публичных трекеров). Перед использованием ссылки прочтите, пожалуйста Пользовательское соглашение, а также как можно дольше оставайтесь на раздаче! Для того, чтобы скачать сам торрент-файл (который видит больше источников), а также для того, чтобы поблагодарить релизера, вам необходимо зарегистрироваться. Если регистрироваться лень - вы можете также попробовать скачать релиз по нашим партнерским ссылкам ниже. Кроме того, зарегистрированным пользователям не показывается всплывающая реклама при скачивании.

[underver.se].t170622.torrent
Трекер: Зарегистрирован   [ 11.06.2020 22:01 ]  

Статус: проверено (by makkol at 11.06.2020 22:26)
Поблагодарили: пока никто не поблагодарил...
Тип торрента: публичный - доступные источники с открытых трекеров: 
Размер: 24,82 GB (занимает 5,67 DVDR, для записи нужно 6 болванок DVDR/RW)
 
 
Похожие темы
Форум Тема Автор Торрент Отв. Посл. сооб.
Зарубежное кино [DVDRip, Low-Res HDRip, и т.д.] Переводчики / Les traducteurs (Режис Руансар) [2019, Триллер, BDRip] Dub (iTunes) Konin
2 | 0

0 | 336

16

12.06.2020 06:25

Наше кино [DVDRip, Low-Res HDRip, и т.д.] Переводчик (Алексей Нужный) [2015 г., криминал, драма, WEB-DLRip] makkol
7 | 0

0 | 1133

61

13.12.2015 11:33

Зарубежное кино [HDDVDRip / BDRip / WEB-DL / HDTV 1080/720р] Переводчики / Les traducteurs (Режис Руансар) [2019, Триллер, BDRip 720p] Dub (iTunes) + Original Konin
55 | 0

0 | 303

9

12.06.2020 06:14

Зарубежное кино [HDDVDRip / BDRip / WEB-DL / HDTV 1080/720р] Переводчики / Les traducteurs (Режис Руансар) [2019, Триллер, BDRip 1080p] Dub (iTunes) + Original Konin
89 | 6

0 | 447

20

12.06.2020 01:30

Наше кино [HDDVDRip / BDRip / WEB-DL / HDTV 1080/720р] Переводчик (Алексей Нужный) [2015 г., криминал, драма, WEB-DL 1080p] makkol
2 | 0

0 | 1051

36

13.12.2015 11:48

Архив (Сериалы) Переводчик [01-04 из 04] ( Андрей Прошкин) [2014 г., драма, военный, SatRip] konopic
1 | 0

1 | 910

24

31.01.2018 17:06


Яндекс.Метрика powered by Sphinx


В Н И М А Н И Е
Сайт не распространяет и не хранит электронные версии произведений, а лишь бесплатно и без коммерческой выгоды (не требуя взамен платы,
SMS и т.д.) предоставляет доступ к создаваемому пользователями каталогу ссылок на торрент-файлы, которые содержат только списки хеш-сумм.
Убедительная просьба с жалобами обращаться напрямую к пользователю, разместившему торрент файл.

Вверх