Loading...
Error

Убийства по открыткам / The Postcard Killings (Данис Танович / Danis Tanovic) [2020, Детектив, криминал, драма, BDRip 720p] Dub (iTunes) + Original + Sub (rus, eng)

Статистика раздачи
Размер:  5,66 GB   |    Зарегистрирован:  2 месяца 2 дня   |    Скачан:  26 раз

Полного источника не было: 10 часов

Сидов:  0  |  0 KB/s  ]   Личеров:  1  |  874 KB/s  ]

* - сиды/пиры с внешних источников

   
 
Автор Сообщение

Konin Пол:Муж

05-Июн-2020 15:26

Убийства по открыткам / The Postcard Killings

Страна: Великобритания, США
Жанр: детектив, криминал, драма
Год выпуска: 2020
Продолжительность: 01:44:08
Перевод: Профессиональный (дублированный) | iTunes
Режиссер:
Данис Танович / Danis Tanovic
В ролях:
Джеффри Дин Морган, Фамке Янссен, Каш Джамбо, Йоахим Круль, Стивен Макинтош, Наоми Баттрик, Руаири О’Коннор, Эва Рёзе, Лукас Лугрэн, Дэнис О’Хэр
Описание:
Лондон, Мадрид, Стокгольм… В Европе орудует жестокий и изощрённый маньяк-убийца. Перемещаясь из города в город, он дразнит полицию, посылая журналистам подсказки в виде открыток из музеев. Одной из его жертв становится дочь опытного и харизматичного детектива из Нью-Йорка, Джейкоба Кэнона. Теперь его цель — найти убийцу и отомстить.

Качество: BDRip 720p
Формат: MKV
Видео: MPEG-4 AVC, 1280x536, 6760 Kbit/s, 23.976 fps
Аудио #01: 48 kHz, AC3, 5.1, 384 Kbps | iTunes | RUS |
Аудио #02: 48 kHz, AC3, 5.1, 640 Kbps | Оригинал | ENG |
Субтитры: Русские (Full), английские
General
Unique ID : 176979548112779724429464636379893699509 (0x852505687A472A5C119FD469EF5D93B5)
Complete name : E:Video111The.Postcard.Killings.2020.BDRip.720p.seleZen.mkv
Format : Matroska
Format version : Version 4
File size : 5.66 GiB
Duration : 1 h 44 min
Overall bit rate : 7 787 kb/s
Movie name : The Postcard Killings 2020 from селезень
Encoded date : UTC 2020-06-05 13:42:26
Writing application : mkvmerge v40.0.0 ('Old Town Road + Pony') 64-bit
Writing library : libebml v1.3.9 + libmatroska v1.5.2
Video
ID : 1
Format : AVC
Format/Info : Advanced Video Codec
Format profile : High@L4.1
Format settings : CABAC / 12 Ref Frames
Format settings, CABAC : Yes
Format settings, Reference : 12 frames
Codec ID : V_MPEG4/ISO/AVC
Duration : 1 h 44 min
Bit rate : 6 760 kb/s
Width : 1 280 pixels
Height : 536 pixels
Display aspect ratio : 2.40:1
Frame rate mode : Constant
Frame rate : 23.976 (24000/1001) FPS
Color space : YUV
Chroma subsampling : 4:2:0
Bit depth : 8 bits
Scan type : Progressive
Bits/(Pixel*Frame) : 0.411
Stream size : 4.92 GiB (87%)
Writing library : x264 core 160 r3000+53 e3e4c3e t_mod_New [(8 & 10)-bit@all X86_64]
Encoding settings : cabac=1 / ref=12 / deblock=1:-3:-3 / analyse=0x3:0x133 / me=umh / subme=10 / psy=1 / fade_compensate=0.00 / psy_rd=1.00:0.00 / mixed_ref=1 / me_range=32 / chroma_me=1 / trellis=2 / 8x8dct=1 / cqm=0 / deadzone=21,11 / fast_pskip=0 / chroma_qp_offset=-2 / threads=16 / lookahead_threads=4 / sliced_threads=0 / nr=0 / decimate=0 / interlaced=0 / bluray_compat=0 / constrained_intra=0 / fgo=0 / bframes=12 / b_pyramid=2 / b_adapt=2 / b_bias=0 / direct=3 / weightb=1 / open_gop=0 / weightp=2 / keyint=480 / keyint_min=24 / scenecut=40 / intra_refresh=0 / rc_lookahead=80 / rc=crf / mbtree=0 / crf=17.0000 / qcomp=0.60 / qpmin=0:0:0 / qpmax=69:69:69 / qpstep=4 / vbv_maxrate=62500 / vbv_bufsize=78125 / crf_max=0.0 / nal_hrd=none / filler=0 / ip_ratio=1.30 / pb_ratio=1.20 / aq=3:0.80 / aq-sensitivity=10.00 / aq-factor=1.00:1.00:1.00 / aq2=0 / aq3=0
Language : English
Default : Yes
Forced : No
Color range : Limited
Color primaries : BT.709
Transfer characteristics : BT.709
Matrix coefficients : BT.709
Audio #1
ID : 2
Format : AC-3
Format/Info : Audio Coding 3
Commercial name : Dolby Digital
Codec ID : A_AC3
Duration : 1 h 44 min
Bit rate mode : Constant
Bit rate : 384 kb/s
Channel(s) : 6 channels
Channel layout : L R C LFE Ls Rs
Sampling rate : 48.0 kHz
Frame rate : 31.250 FPS (1536 SPF)
Compression mode : Lossy
Stream size : 286 MiB (5%)
Title : iTunes
Language : Russian
Service kind : Complete Main
Default : Yes
Forced : Yes
Audio #2
ID : 3
Format : AC-3
Format/Info : Audio Coding 3
Commercial name : Dolby Digital
Codec ID : A_AC3
Duration : 1 h 44 min
Bit rate mode : Constant
Bit rate : 640 kb/s
Channel(s) : 6 channels
Channel layout : L R C LFE Ls Rs
Sampling rate : 48.0 kHz
Frame rate : 31.250 FPS (1536 SPF)
Compression mode : Lossy
Stream size : 477 MiB (8%)
Title : Original
Language : English
Service kind : Complete Main
Default : No
Forced : No
Text #1
ID : 4
Format : UTF-8
Codec ID : S_TEXT/UTF8
Codec ID/Info : UTF-8 Plain Text
Duration : 1 h 36 min
Bit rate : 102 b/s
Count of elements : 1320
Stream size : 72.3 KiB (0%)
Title : Full
Language : Russian
Default : No
Forced : No
Text #2
ID : 5
Format : UTF-8
Codec ID : S_TEXT/UTF8
Codec ID/Info : UTF-8 Plain Text
Duration : 1 h 39 min
Bit rate : 56 b/s
Count of elements : 1297
Stream size : 41.2 KiB (0%)
Title : SDH
Language : English
Default : No
Forced : No
Menu
00:00:00.000 : en:Chapter 1
00:10:55.196 : en:Chapter 2
00:25:18.642 : en:Chapter 3
00:36:15.673 : en:Chapter 4
00:47:14.498 : en:Chapter 5
00:58:21.998 : en:Chapter 6
01:17:56.881 : en:Chapter 7
01:37:36.267 : en:Chapter 8
Релиз от

Этот торрент недоступен для скачивания без регистрации, однако доступен по публичной magnet-ссылке (источники с публичных трекеров). Перед использованием ссылки прочтите, пожалуйста Пользовательское соглашение, а также как можно дольше оставайтесь на раздаче! Для того, чтобы скачать сам торрент-файл (который видит больше источников), а также для того, чтобы поблагодарить релизера, вам необходимо зарегистрироваться. Если регистрироваться лень - вы можете также попробовать скачать релиз по нашим партнерским ссылкам ниже. Кроме того, зарегистрированным пользователям не показывается всплывающая реклама при скачивании.

[underver.se].t170128.torrent
Трекер: Зарегистрирован   [ 05.06.2020 15:26 ]  

Статус: проверено (by makkol at 05.06.2020 21:01)
Поблагодарили: 1 человек
Тип торрента: публичный - доступные источники с открытых трекеров: 
Размер: 5,66 GB (занимает 1,29 DVDR, для записи нужно 2 болванки DVDR/RW)
 
 
Похожие темы
Форум Тема Автор Торрент Отв. Посл. сооб.
Зарубежное кино [DVDRip, Low-Res HDRip, и т.д.] Убийства по открыткам / The Postcard Killings (Данис Танович) [2020 г., детектив, криминал, драма, BDRip] VO (zamez) makkol
46 | 2

0 | 743

24

18.05.2020 21:56

Зарубежное кино [DVDRip, Low-Res HDRip, и т.д.] Убийства по открыткам / The Postcard Killings (Данис Танович) [2020 г., детектив, криминал, драма, BDRip-AVC] VO (zamez) + Original + Sub makkol
9 | 0

0 | 714

10

18.05.2020 22:01

Зарубежное кино [DVDRip, Low-Res HDRip, и т.д.] Убийства по открыткам / The Postcard Killings (Данис Танович) [2020 г., детектив, криминал, драма, BDRip] Dub (iTunes) makkol
59 | 1

0 | 283

21

04.06.2020 11:38

Зарубежное кино [DVDRip, Low-Res HDRip, и т.д.] Убийства по открыткам / The Postcard Killings (Данис Танович) [2020 г., детектив, криминал, драма, BDRip] Dub (iTunes) + Original + Sub makkol
9 | 0

0 | 420

11

04.06.2020 14:36

xUSSR сериалы Убийства по пятницам [01-04 из 04] (Карен Захаров) [2018 г., детектив, WEB-DLRip] 90ytr90
2 | 0

0 | 785

21

17.11.2018 16:31

Зарубежное кино [DVD / HDDVD / BD / Remux] Убийства по открыткам / The Postcard Killings (Данис Танович) [2020 г., детектив, криминал, драма, BD-Remux] Dub (iTunes) + Original + Sub makkol
37 | 1

0 | 356

7

04.06.2020 21:14

Зарубежное кино [HDDVDRip / BDRip / WEB-DL / HDTV 1080/720р] Убийства по открыткам / The Postcard Killings (Данис Танович) [2020 г., детектив, криминал, драма, BDRip 1080p] VO (zamez) makkol
39 | 2

0 | 808

24

18.05.2020 22:06

Зарубежное кино [HDDVDRip / BDRip / WEB-DL / HDTV 1080/720р] Убийства по открыткам / The Postcard Killings (Данис Танович / Danis Tanovic) [2020, Детектив, криминал, драма, BDRip 1080p] Dub (iTunes) + Original + Sub (rus, eng) Konin
317 | 10

0 | 556

27

05.06.2020 15:27


Яндекс.Метрика powered by Sphinx


В Н И М А Н И Е
Сайт не распространяет и не хранит электронные версии произведений, а лишь бесплатно и без коммерческой выгоды (не требуя взамен платы,
SMS и т.д.) предоставляет доступ к создаваемому пользователями каталогу ссылок на торрент-файлы, которые содержат только списки хеш-сумм.
Убедительная просьба с жалобами обращаться напрямую к пользователю, разместившему торрент файл.

Вверх