Loading...
Error

Убийства по открыткам / The Postcard Killings (Данис Танович) [2020 г., детектив, криминал, драма, BDRip] Dub (iTunes) + Original + Sub

Статистика раздачи
Размер:  2,18 GB   |    Зарегистрирован:  2 месяца 3 дня   |    Скачан:  11 раз

Полного источника не было: 2 дня 12 часов

Сидов:  0  |  0 KB/s  ]   Личеров:  0  |  0 KB/s  ]

* - сиды/пиры с внешних источников

   
 
Автор Сообщение

makkol Пол:Муж

04-Июн-2020 14:36

Убийства по открыткам / The Postcard Killings


Год выпуска: 2020
Жанр: детектив, криминал, драма
Производство: Великобритания , США [Good Films Collective, Hindsight Media, K. JAM Media]
Режиссер: Данис Танович
В ролях: Джеффри Дин Морган, Фамке Янссен, Каш Джамбо, Йоахим Круль, Стивен Макинтош, Наоми Баттрик, Руаири О’Коннор, Эва Рёзе, Лукас Лугрэн, Дэнис О’Хэр
Сюжет фильма:
Лондон, Мадрид, Стокгольм… В Европе орудует жестокий и изощрённый маньяк-убийца. Перемещаясь из города в город, он дразнит полицию, посылая журналистам подсказки в виде открыток из музеев. Одной из его жертв становится дочь опытного и харизматичного детектива из Нью-Йорка, Джейкоба Кэнона. Теперь его цель — найти убийцу и отомстить.

  • Мировая премьера: 13 марта 2020
  • Российская премьера: 25 июня 2020


Качество видео: BDRip [исх. The.Postcard.Killings.2020.1080p.BluRay.REMUX.AVC.DTS-HD.MA.5.1-FGT]

Продолжительность: 01:44:09
Формат: AVI
Видео: XviD, 720x304 (2.35:1), 23.976 fps, 2144 kbps
Аудио #1: русский, дублированный (iTunes), AC3 5.1, 48 kHz, 384 kbps
Аудио #2: английский, оригинал, AC3 5.1, 48 kHz, 448 kbps
Субтитры: русские, английские (full, SDH) внешние

Код:

Формат                                   : AVI
Формат/Информация                        : Audio Video Interleave
Профиль формата                          : OpenDML
Размер файла                             : 2,18 Гбайт
Продолжительность                        : 1 ч. 44 м.
Общий поток                              : 2 993 Кбит/сек
Название фильма                          : Убийства по открыткам_2020_BDRip_2.18
Программа кодирования                    : VirtualDubMod 1.5.10.3 | www.virtualdub-fr.org || (build 2550/release)
Авторское право                          : порошков

Видео
Идентификатор                            : 0
Формат                                   : MPEG-4 Visual
Профиль формата                          : Advanced Simple@L5
Настройки формата                        : BVOP1 / Custom Matrix
Параметр BVOP формата                    : 1
Параметр QPel формата                    : Нет
Параметр GMC формата                     : Без точки перехода
Параметр матрицы формата                 : Выборочная
Идентификатор кодека                     : XVID
Идентификатор кодека/Подсказка           : XviD
Продолжительность                        : 1 ч. 44 м.
Битрейт                                  : 2 144 Кбит/сек
Ширина                                   : 720 пикселей
Высота                                   : 304 пикселя
Соотношение сторон                       : 2,35:1
Частота кадров                           : 23,976 (24000/1001) кадра/сек
Цветовое пространство                    : YUV
Субдискретизация насыщенности            : 4:2:0
Битовая глубина                          : 8 бит
Тип развёртки                            : Прогрессивная
Метод сжатия                             : С потерями
Бит/(Пиксели*Кадры)                      : 0.408
Размер потока                            : 1,56 Гбайт (72%)
Библиотека кодирования                   : XviD 73

Аудио #1
Идентификатор                            : 1
Формат                                   : AC-3
Формат/Информация                        : Audio Coding 3
Коммерческое название                    : Dolby Digital
Идентификатор кодека                     : 2000
Продолжительность                        : 1 ч. 44 м.
Вид битрейта                             : Постоянный
Битрейт                                  : 384 Кбит/сек
Каналы                                   : 6 каналов
Channel layout                           : L R C LFE Ls Rs
Частота                                  : 48,0 КГц
Частота кадров                           : 31,250 кадров/сек (1536 SPF)
Метод сжатия                             : С потерями
Размер потока                            : 286 Мбайт (13%)
Выравнивание                             : Разделение по промежуткам
Продолжительность промежутка             : 42  мс. (1,00 видеокадр)
Время предзагрузки промежутка            : 500  мс.
Заголовок                                : rus
Service kind                             : Complete Main

Аудио #2
Идентификатор                            : 2
Формат                                   : AC-3
Формат/Информация                        : Audio Coding 3
Коммерческое название                    : Dolby Digital
Идентификатор кодека                     : 2000
Продолжительность                        : 1 ч. 44 м.
Вид битрейта                             : Постоянный
Битрейт                                  : 448 Кбит/сек
Каналы                                   : 6 каналов
Channel layout                           : L R C LFE Ls Rs
Частота                                  : 48,0 КГц
Частота кадров                           : 31,250 кадров/сек (1536 SPF)
Метод сжатия                             : С потерями
Размер потока                            : 334 Мбайт (15%)
Выравнивание                             : Разделение по промежуткам
Продолжительность промежутка             : 42  мс. (1,00 видеокадр)
Время предзагрузки промежутка            : 500  мс.
Заголовок                                : eng
Service kind                             : Complete Main

Этот торрент недоступен для скачивания без регистрации, однако доступен по публичной magnet-ссылке (источники с публичных трекеров). Перед использованием ссылки прочтите, пожалуйста Пользовательское соглашение, а также как можно дольше оставайтесь на раздаче! Для того, чтобы скачать сам торрент-файл (который видит больше источников), а также для того, чтобы поблагодарить релизера, вам необходимо зарегистрироваться. Если регистрироваться лень - вы можете также попробовать скачать релиз по нашим партнерским ссылкам ниже. Кроме того, зарегистрированным пользователям не показывается всплывающая реклама при скачивании.

[underver.se].t170053.torrent
Трекер: Зарегистрирован   [ 04.06.2020 14:36 ]  

Статус: проверено (by makkol at 04.06.2020 14:37)
Поблагодарили: 2 человека
Тип торрента: публичный - доступные источники с открытых трекеров: 
Размер: 2,18 GB (занимает 1/2 DVDR, для записи нужно 1 болванка DVDR/RW)
 
 
Похожие темы
Форум Тема Автор Торрент Отв. Посл. сооб.
Зарубежное кино [DVDRip, Low-Res HDRip, и т.д.] Убийства по открыткам / The Postcard Killings (Данис Танович) [2020 г., детектив, криминал, драма, BDRip] VO (zamez) makkol
46 | 2

0 | 742

24

18.05.2020 21:56

Зарубежное кино [DVDRip, Low-Res HDRip, и т.д.] Убийства по открыткам / The Postcard Killings (Данис Танович) [2020 г., детектив, криминал, драма, BDRip-AVC] VO (zamez) + Original + Sub makkol
9 | 0

0 | 713

10

18.05.2020 22:01

Зарубежное кино [DVDRip, Low-Res HDRip, и т.д.] Убийства по открыткам / The Postcard Killings (Данис Танович) [2020 г., детектив, криминал, драма, BDRip] Dub (iTunes) makkol
59 | 1

0 | 282

21

04.06.2020 11:38

xUSSR сериалы Убийства по пятницам [01-04 из 04] (Карен Захаров) [2018 г., детектив, WEB-DLRip] 90ytr90
2 | 0

0 | 785

21

17.11.2018 16:31

Зарубежное кино [DVD / HDDVD / BD / Remux] Убийства по открыткам / The Postcard Killings (Данис Танович) [2020 г., детектив, криминал, драма, BD-Remux] Dub (iTunes) + Original + Sub makkol
37 | 1

0 | 356

7

04.06.2020 21:14

Зарубежное кино [HDDVDRip / BDRip / WEB-DL / HDTV 1080/720р] Убийства по открыткам / The Postcard Killings (Данис Танович) [2020 г., детектив, криминал, драма, BDRip 1080p] VO (zamez) makkol
39 | 2

0 | 807

24

18.05.2020 22:06

Зарубежное кино [HDDVDRip / BDRip / WEB-DL / HDTV 1080/720р] Убийства по открыткам / The Postcard Killings (Данис Танович / Danis Tanovic) [2020, Детектив, криминал, драма, BDRip 720p] Dub (iTunes) + Original + Sub (rus, eng) Konin
222 | 6

0 | 280

26

05.06.2020 15:26

Зарубежное кино [HDDVDRip / BDRip / WEB-DL / HDTV 1080/720р] Убийства по открыткам / The Postcard Killings (Данис Танович / Danis Tanovic) [2020, Детектив, криминал, драма, BDRip 1080p] Dub (iTunes) + Original + Sub (rus, eng) Konin
317 | 10

0 | 556

27

05.06.2020 15:27


Яндекс.Метрика powered by Sphinx


В Н И М А Н И Е
Сайт не распространяет и не хранит электронные версии произведений, а лишь бесплатно и без коммерческой выгоды (не требуя взамен платы,
SMS и т.д.) предоставляет доступ к создаваемому пользователями каталогу ссылок на торрент-файлы, которые содержат только списки хеш-сумм.
Убедительная просьба с жалобами обращаться напрямую к пользователю, разместившему торрент файл.

Вверх