Loading...
Error

Переводчики / Les traducteurs (Режис Руансар) [2019 г., триллер, WEB-DLRip] Dub (iTunes)

Статистика раздачи
Размер:  1,46 GB   |    Зарегистрирован:  2 месяца 16 дней   |    Скачан:  33 раза
Сидов:  3  |  20 KB/s  ]   Личеров:  0  |  0 KB/s  ]

* - сиды/пиры с внешних источников

   
 
Автор Сообщение

makkol Пол:Муж

29-Май-2020 10:31

Переводчики / Les traducteurs


Год выпуска: 2019
Жанр: триллер
Производство: Франция , Бельгия [Trésor Films, Mars Films, France 2 Cinéma]
Режиссер: Режис Руансар
В ролях: Ламбер Вильсон, Ольга Куриленко, Риккардо Скамарчо, Сидсе Бабетт Кнудсен, Эдуардо Норьега, Алекс Лоутер, Анна Мария Штурм, Фредерик Шо, Мария Лейте, Манолис Мавроматакис
Сюжет фильма:
Девять переводчиков работают в секретном бункере над последней частью самого нашумевшего бестселлера. Их изолировали, чтобы не допустить утечки ожидаемой новинки в интернет. Но она все-таки произошла...

  • Мировая премьера: 23 ноября 2019
  • Российская премьера: 27 февраля 2020


Качество видео: WEB-DLRip

Продолжительность: 01:45:05
Формат: AVI
Видео: XviD, 720x304 (2.35:1), 23.976 fps, 1596 kbps
Аудио: русский, дублированный (iTunes), AC3 5.1, 48 kHz, 384 kbps

Релиз:

Код:

Формат : AVI
Формат/Информация : Audio Video Interleave
Размер файла : 1,46 Гбайт
Продолжительность : 1 ч. 45 м.
Общий поток : 1990 Кбит/сек
Программа кодирования : VirtualDubMod 1.5.10.3 | www.virtualdub-fr.org || (build 2550/release)
Авторское право : MegaPeer

Видео
Идентификатор : 0
Формат : MPEG-4 Visual
Профиль формата : Advanced Simple@L5
Настройки формата : BVOP1 / Custom Matrix
Параметр BVOP формата : 1
Параметр QPel формата : Нет
Параметр GMC формата : Без точки перехода
Параметр матрицы формата : Выборочная
Идентификатор кодека : XVID
Идентификатор кодека/Подсказка : XviD
Продолжительность : 1 ч. 45 м.
Битрейт : 1596 Кбит/сек
Ширина : 720 пикселей
Высота : 304 пикселя
Соотношение сторон : 2,35:1
Частота кадров : 23,976 (24000/1001) кадра/сек
Цветовое пространство : YUV
Субдискретизация насыщенности : 4:2:0
Битовая глубина : 8 бит
Тип развёртки : Прогрессивная
Метод сжатия : С потерями
Бит/(Пиксели*Кадры) : 0.304
Размер потока : 1,17 Гбайт (80%)
Библиотека кодирования : XviD 73

Аудио
Идентификатор : 1
Формат : AC-3
Формат/Информация : Audio Coding 3
Коммерческое название : Dolby Digital
Идентификатор кодека : 2000
Продолжительность : 1 ч. 45 м.
Вид битрейта : Постоянный
Битрейт : 384 Кбит/сек
Каналы : 6 каналов
ChannelLayout : L R C LFE Ls Rs
Частота : 48,0 КГц
Частота кадров : 31,250 кадров/сек (1536 SPF)
Метод сжатия : С потерями
Размер потока : 289 Мбайт (19%)
Выравнивание : Разделение по промежуткам
Продолжительность промежутка : 42 мс. (1,00 видеокадр)
Время предзагрузки промежутка : 500 мс.
ServiceKind/String : Complete Main

Этот торрент недоступен для скачивания без регистрации, однако доступен по публичной magnet-ссылке (источники с публичных трекеров). Перед использованием ссылки прочтите, пожалуйста Пользовательское соглашение, а также как можно дольше оставайтесь на раздаче! Для того, чтобы скачать сам торрент-файл (который видит больше источников), а также для того, чтобы поблагодарить релизера, вам необходимо зарегистрироваться. Если регистрироваться лень - вы можете также попробовать скачать релиз по нашим партнерским ссылкам ниже. Кроме того, зарегистрированным пользователям не показывается всплывающая реклама при скачивании.

[underver.se].t169547.torrent
Трекер: Зарегистрирован   [ 29.05.2020 10:31 ]  

Статус: поглощено (by makkol at 12.06.2020 11:54)
Поблагодарили: 1 человек
Тип торрента: публичный - доступные источники с открытых трекеров: 
Размер: 1,46 GB (занимает 0,33 DVDR, для записи нужно 1 болванка DVDR/RW)
 
 
Похожие темы
Форум Тема Автор Торрент Отв. Посл. сооб.
Зарубежное кино [DVDRip, Low-Res HDRip, и т.д.] Переводчики / Les traducteurs (Режис Руансар) [2019, Триллер, BDRip] Dub (iTunes) Konin
1 | 0

0 | 310

14

12.06.2020 06:25

Наше кино [DVDRip, Low-Res HDRip, и т.д.] Переводчик (Алексей Нужный) [2015 г., криминал, драма, WEB-DLRip] makkol
7 | 0

0 | 1107

61

13.12.2015 11:33

Зарубежное кино [DVD / HDDVD / BD / Remux] Переводчики / Les traducteurs (Режис Руансар) [2019, Триллер, BDRemux 1080p] Dub (iTunes) + Original Konin
23 | 6

0 | 274

6

11.06.2020 22:01

Зарубежное кино [HDDVDRip / BDRip / WEB-DL / HDTV 1080/720р] Переводчики / Les traducteurs (Режис Руансар) [2019, Триллер, BDRip 720p] Dub (iTunes) + Original Konin
69 | 1

0 | 273

8

12.06.2020 06:14

Зарубежное кино [HDDVDRip / BDRip / WEB-DL / HDTV 1080/720р] Переводчики / Les traducteurs (Режис Руансар) [2019, Триллер, BDRip 1080p] Dub (iTunes) + Original Konin
102 | 6

0 | 410

20

12.06.2020 01:30

Наше кино [HDDVDRip / BDRip / WEB-DL / HDTV 1080/720р] Переводчик (Алексей Нужный) [2015 г., криминал, драма, WEB-DL 1080p] makkol
2 | 0

0 | 1029

36

13.12.2015 11:48

Архив (Сериалы) Переводчик [01-04 из 04] ( Андрей Прошкин) [2014 г., драма, военный, SatRip] konopic
0 | 0

1 | 897

24

31.01.2018 17:06

12-Июн-2020 11:54

Топик был перенесен из форума Зарубежное кино [DVDRip, Low-Res HDRip, и т.д.] в форум Для поглощенных раздач

Причина переноса: https://underverse.su/viewtopic.php?t=168165
makkol
 

Яндекс.Метрика powered by Sphinx


В Н И М А Н И Е
Сайт не распространяет и не хранит электронные версии произведений, а лишь бесплатно и без коммерческой выгоды (не требуя взамен платы,
SMS и т.д.) предоставляет доступ к создаваемому пользователями каталогу ссылок на торрент-файлы, которые содержат только списки хеш-сумм.
Убедительная просьба с жалобами обращаться напрямую к пользователю, разместившему торрент файл.

Вверх