Loading...
Error

Пеплопад / Гора Пэкту / Baekdusan / Ashfall (Хэ Чжун Ли, Бён Су Ким) [2019 г., боевик, катастрофа, BDRip] AVO (Дольский)

Статистика раздачи
Размер:  1,46 GB   |    Зарегистрирован:  5 дней   |    Скачан:  8 раз

Полного источника не было: 1 день 5 часов

Сидов:  0  |  0 KB/s  ]   Личеров:  0  |  0 KB/s  ]

* - сиды/пиры с внешних источников

   
 
Автор Сообщение

makkol Пол:Муж

22-Май-2020 22:40

Пеплопад / Гора Пэкту / Baekdusan / Ashfall


Год выпуска: 2019
Жанр: боевик, катастрофа
Производство: Корея Южная [Dexter Studios]
Режиссер: Хэ Чжун Ли, Бён Су Ким
В ролях: Бён Хон Ли, Чон У Ха, Дон Сок Ма, Хе Чжин Чон (I), Су Чжи Пэ, Сан Вон Ли, Ча Ён Ок, Син Чхоль Кан, Су Хён Хан, Кён Ён Ли, Си А Ким, Хан Чхоль Чо, До Ён Чон
Сюжет фильма:
Вулкан горы Пэкту, находящейся на территории Северной Кореи, начинает извергаться, происходят сильные землетрясения, что в самом ближайшем будущем грозит разрушением половины Корейского полуострова. Правительство Южной Кореи решает реализовать безумный план одного учёного: доставить в шахту горы Пэкту ядерную бомбу, взорвать её и тем самым уменьшить давление магмы. А поскольку на Юге нет ядерной программы, ответственное задание поручается сапёрной команде — вызволить из застенков северного агента и с ним пробраться на секретную базу коммунистического соседа.

  • Мировая премьера: 19 декабря 2019


Качество видео: BDRip [исх. Ashfall.2019.KOREAN.1080p.BluRay.AVC.TrueHD.5.1-FGT]

Продолжительность: 02:08:11
Формат: AVI
Видео: XviD, 720x304 (2.35:1), 23.976 fps, 1430 kbps
Аудио: русский, авторский одноголосый (Андрей Дольский), AC3 2.0, 48 kHz, 192 kbps

Релиз: dalemake

Код:

Полное имя                               : Ashfall_2019_BDRip_AVO_by_Dalemake.avi
Формат                                   : AVI
Формат/Информация                        : Audio Video Interleave
Размер файла                             : 1,46 Гбайт
Продолжительность                        : 2 ч. 8 м.
Общий поток                              : 1 632 Кбит/сек
Программа кодирования                    : VirtualDubMod 1.5.10.3 | www.virtualdub-fr.org || (build 2550/release)
Библиотека кодирования                   : VirtualDubMod build 2550/release

Видео
Идентификатор                            : 0
Формат                                   : MPEG-4 Visual
Профиль формата                          : Advanced Simple@L5
Настройки формата                        : BVOP1 / Custom Matrix
Параметр BVOP формата                    : 1
Параметр QPel формата                    : Нет
Параметр GMC формата                     : Без точки перехода
Параметр матрицы формата                 : Выборочная
Идентификатор кодека                     : XVID
Идентификатор кодека/Подсказка           : XviD
Продолжительность                        : 2 ч. 8 м.
Битрейт                                  : 1 430 Кбит/сек
Ширина                                   : 720 пикселей
Высота                                   : 304 пикселя
Соотношение сторон                       : 2,35:1
Частота кадров                           : 23,976 (24000/1001) кадра/сек
Цветовое пространство                    : YUV
Субдискретизация насыщенности            : 4:2:0
Битовая глубина                          : 8 бит
Тип развёртки                            : Прогрессивная
Метод сжатия                             : С потерями
Бит/(Пиксели*Кадры)                      : 0.273
Размер потока                            : 1,28 Гбайт (88%)
Библиотека кодирования                   : XviD 67

Аудио
Идентификатор                            : 1
Формат                                   : AC-3
Формат/Информация                        : Audio Coding 3
Коммерческое название                    : Dolby Digital
Идентификатор кодека                     : 2000
Продолжительность                        : 2 ч. 8 м.
Вид битрейта                             : Постоянный
Битрейт                                  : 192 Кбит/сек
Каналы                                   : 2 канала
Channel layout                           : L R
Частота                                  : 48,0 КГц
Частота кадров                           : 31,250 кадров/сек (1536 SPF)
Метод сжатия                             : С потерями
Задержка видео                           : 1 с. 900 мс.
Размер потока                            : 176 Мбайт (12%)
Выравнивание                             : Разделение по промежуткам
Продолжительность промежутка             : 42  мс. (1,00 видеокадр)
Время предзагрузки промежутка            : 500  мс.
Service kind                             : Complete Main

Этот торрент недоступен для скачивания без регистрации, однако доступен по публичной magnet-ссылке (источники с публичных трекеров). Перед использованием ссылки прочтите, пожалуйста Пользовательское соглашение, а также как можно дольше оставайтесь на раздаче! Для того, чтобы скачать сам торрент-файл (который видит больше источников), а также для того, чтобы поблагодарить релизера, вам необходимо зарегистрироваться. Если регистрироваться лень - вы можете также попробовать скачать релиз по нашим партнерским ссылкам ниже. Кроме того, зарегистрированным пользователям не показывается всплывающая реклама при скачивании.

[underver.se].t168903.torrent
Трекер: Зарегистрирован   [ 22.05.2020 22:40 ]  

Статус: проверено (by makkol at 22.05.2020 22:41)
Поблагодарили: пока никто не поблагодарил...
Тип торрента: публичный - доступные источники с открытых трекеров: 
Размер: 1,46 GB (занимает 0,33 DVDR, для записи нужно 1 болванка DVDR/RW)
 
 
Похожие темы
Форум Тема Автор Торрент Отв. Посл. сооб.
T Зарубежное кино [DVDRip, Low-Res HDRip, и т.д.] Пеплопад / Baekdusan (Хэ Чжун Ли, Бён Су Ким) [2019 г., боевик, WEB-DLRip] DVO (Колобок) makkol
18 | 0

0 | 319

13

30.01.2020 10:09

T Зарубежное кино [DVDRip, Low-Res HDRip, и т.д.] Пеплопад / Baekdusan (Хэ Чжун Ли, Бён Су Ким) [2019 г., боевик, WEB-DLRip] DVO (Колобок) makkol
1 | 1

0 | 316

4

30.01.2020 10:13

T Зарубежное кино [HDDVDRip / BDRip / WEB-DL / HDTV 1080/720р] Пеплопад / Baekdusan (Хэ Чжун Ли, Бён Су Ким) [2019 г., боевик, WEB-DL 720p] DVO (Колобок) makkol
7 | 1

0 | 412

11

30.01.2020 10:17

Зарубежное кино [HDDVDRip / BDRip / WEB-DL / HDTV 1080/720р] Пеплопад / Гора Пэкту / Baekdusan / Ashfall (Хэ Чжун Ли, Бён Су Ким) [2019 г., боевик, катастрофа, BDRip 1080p] DVO (Колобок) + Original makkol
22 | 1

0 | 423

2

22.05.2020 22:48

Зарубежное кино [HDDVDRip / BDRip / WEB-DL / HDTV 1080/720р] Пеплопад / Гора Пэкту / Baekdusan / Ashfall (Хэ Чжун Ли, Бён Су Ким) [2019 г., боевик, катастрофа, BDRip 1080p] MVO (HDRezka Studio) + AVO (Дольский) + Original makkol
130 | 35

0 | 279

6

23.05.2020 10:13


Яндекс.Метрика powered by Sphinx


В Н И М А Н И Е
Сайт не распространяет и не хранит электронные версии произведений, а лишь бесплатно и без коммерческой выгоды (не требуя взамен платы,
SMS и т.д.) предоставляет доступ к создаваемому пользователями каталогу ссылок на торрент-файлы, которые содержат только списки хеш-сумм.
Убедительная просьба с жалобами обращаться напрямую к пользователю, разместившему торрент файл.

Вверх