Loading...
Error

Видеорегистратор / Body Cam (Малик Бут) [2020 г., ужасы, триллер, детектив, WEB-DL 1080p] MVO (Mallorn) + Original + Sub

Статистика раздачи
Размер:  3,95 GB   |    Зарегистрирован:  5 дней   |    Скачан:  21 раз
Сидов:  3  |  120 KB/s  ]   Личеров:  0  |  0 KB/s  ]

* - сиды/пиры с внешних источников

   
 
Автор Сообщение

makkol Пол:Муж

22-Май-2020 22:28

Видеорегистратор / Body Cam


Год выпуска: 2020
Жанр: ужасы, триллер, детектив
Производство: США [Ace Entertainment, Paramount Players]
Режиссер: Малик Бут
В ролях: Мэри Джей Блайдж, Нат Вулф, Аника Нони Роуз, Тео Росси, Дэвид Зайас, Деметриус Гросс, Сильвия Грэйс Крим, Сью-Линн Ансари, Йен Касселберри, Лара Грайс
Сюжет фильма:
Когда рутинная проверка документов оборачивается жестоким и мистическим убийством её бывшего напарника и близкого друга, Рене решает взять расследование в свои руки. Но по мере распутывания клубка, начинают появляться всё более странные факты, указывающие на сверхъестественный характер убийства.

  • Мировая премьера: 19 мая 2020


Качество видео: WEB-DL 1080p

Продолжительность: 01:36:39
Формат: MKV
Видео: MPEG-4 AVC, 1920x800 (2.40:1), 23.976 fps, 4569 kbps
Аудио #1: русский, любительский многоголосый закадровый (Mallorn Studo), AC3 5.1, 48 kHz, 640 kbps
Аудио #2: английский, оригинал, E-AC3 5.1, 48 kHz, 640 kbps
Субтитры: русские, английские вшитые отключаемые

Код:

General
Unique ID : 294671694805553112947775757950683993829 (0xDDAFB43E84603F4832431E5A682056E5)
Complete name : Body.Cam.2020.1080p.WEB-DL_Mallorn.mkv
Format : Matroska
Format version : Version 4 / Version 2
File size : 3.95 GiB
Duration : 1 h 36 min
Overall bit rate : 5 851 kb/s
Encoded date : UTC 2020-05-21 15:22:35
Writing application : mkvmerge v44.0.0 ('Domino') 64-bit
Writing library : libebml v1.3.10 + libmatroska v1.5.2

Video
ID : 1
Format : AVC
Format/Info : Advanced Video Codec
Format profile : High@L4
Format settings : CABAC / 4 Ref Frames
Format settings, CABAC : Yes
Format settings, RefFrames : 4 frames
Codec ID : V_MPEG4/ISO/AVC
Duration : 1 h 36 min
Bit rate mode : Constant
Bit rate : 4 569 kb/s
Nominal bit rate : 10 000 kb/s
Width : 1 920 pixels
Height : 800 pixels
Display aspect ratio : 2.40:1
Frame rate mode : Constant
Frame rate : 23.976 (24000/1001) FPS
Color space : YUV
Chroma subsampling : 4:2:0
Bit depth : 8 bits
Scan type : Progressive
Bits/(Pixel*Frame) : 0.124
Stream size : 3.08 GiB (78%)
Language : English
Default : Yes
Forced : No
Color range : Limited
Color primaries : BT.709
Transfer characteristics : BT.709
Matrix coefficients : BT.709

Audio #1
ID : 2
Format : AC-3
Format/Info : Audio Coding 3
Codec ID : A_AC3
Duration : 1 h 36 min
Bit rate mode : Constant
Bit rate : 640 kb/s
Channel(s) : 6 channels
Channel positions : Front: L C R, Side: L R, LFE
Sampling rate : 48.0 kHz
Frame rate : 31.250 FPS (1536 SPF)
Bit depth : 16 bits
Compression mode : Lossy
Stream size : 442 MiB (11%)
Title : Mallorn
Language : Russian
Service kind : Complete Main
Default : Yes
Forced : No

Audio #2
ID : 3
Format : E-AC-3
Format/Info : Enhanced Audio Coding 3
Codec ID : A_EAC3
Duration : 1 h 36 min
Bit rate mode : Constant
Bit rate : 640 kb/s
Channel(s) : 6 channels
Channel positions : Front: L C R, Side: L R, LFE
Sampling rate : 48.0 kHz
Frame rate : 187.500 FPS (256 SPF)
Compression mode : Lossy
Stream size : 442 MiB (11%)
Language : English
Service kind : Complete Main
Default : No
Forced : No

Text #1
ID : 4
Format : UTF-8
Codec ID : S_TEXT/UTF8
Codec ID/Info : UTF-8 Plain Text
Duration : 1 h 29 min
Bit rate : 60 b/s
Count of elements : 825
Stream size : 39.5 KiB (0%)
Title : Mallorn
Language : Russian
Default : No
Forced : No

Text #2
ID : 5
Format : UTF-8
Codec ID : S_TEXT/UTF8
Codec ID/Info : UTF-8 Plain Text
Duration : 1 h 29 min
Bit rate : 40 b/s
Count of elements : 827
Stream size : 26.7 KiB (0%)
Language : English
Default : No
Forced : No

Text #3
ID : 6
Format : UTF-8
Codec ID : S_TEXT/UTF8
Codec ID/Info : UTF-8 Plain Text
Duration : 1 h 29 min
Bit rate : 44 b/s
Count of elements : 991
Stream size : 29.5 KiB (0%)
Title : SDH
Language : English
Default : No
Forced : No

Этот торрент недоступен для скачивания без регистрации, однако доступен по публичной magnet-ссылке (источники с публичных трекеров). Перед использованием ссылки прочтите, пожалуйста Пользовательское соглашение, а также как можно дольше оставайтесь на раздаче! Для того, чтобы скачать сам торрент-файл (который видит больше источников), а также для того, чтобы поблагодарить релизера, вам необходимо зарегистрироваться. Если регистрироваться лень - вы можете также попробовать скачать релиз по нашим партнерским ссылкам ниже. Кроме того, зарегистрированным пользователям не показывается всплывающая реклама при скачивании.

[underver.se].t168902.torrent
Трекер: Зарегистрирован   [ 22.05.2020 22:28 ]  

Статус: проверено (by makkol at 22.05.2020 22:29)
Поблагодарили: пока никто не поблагодарил...
Тип торрента: публичный - доступные источники с открытых трекеров: 
Размер: 3,95 GB (занимает 0,9 DVDR, для записи нужно 1 болванка DVDR/RW)
 
 
Похожие темы
Форум Тема Автор Торрент Отв. Посл. сооб.
T Зарубежное кино [DVDRip, Low-Res HDRip, и т.д.] Видеорегистратор / Body Cam (Малик Бут) [2020 г., ужасы, триллер, детектив, WEB-DLRip] MVO (AlphaProject) makkol
70 | 3

0 | 708

15

18.05.2020 22:24

T Зарубежное кино [HDDVDRip / BDRip / WEB-DL / HDTV 1080/720р] Видеорегистратор / Body Cam (Малик Бут) [2020 г., ужасы, триллер, детектив, WEB-DL 1080p] MVO (AlphaProject) makkol
6 | 2

0 | 708

11

18.05.2020 22:29


Яндекс.Метрика powered by Sphinx


В Н И М А Н И Е
Сайт не распространяет и не хранит электронные версии произведений, а лишь бесплатно и без коммерческой выгоды (не требуя взамен платы,
SMS и т.д.) предоставляет доступ к создаваемому пользователями каталогу ссылок на торрент-файлы, которые содержат только списки хеш-сумм.
Убедительная просьба с жалобами обращаться напрямую к пользователю, разместившему торрент файл.

Вверх