Loading...
Error

Дожить до утра / Survive the Night (Мэтт Эскандари) [2020 г., боевик, триллер, WEB-DL 1080p] MVO (AlphaProject)

Статистика раздачи
Размер:  4,49 GB   |    Зарегистрирован:  5 дней   |    Скачан:  12 раз
Сидов:  1  |  0 KB/s  ]   Личеров:  0  |  0 KB/s  ]

* - сиды/пиры с внешних источников

   
 
Автор Сообщение

makkol Пол:Муж

22-Май-2020 22:19

Дожить до утра / Survive the Night


Год выпуска: 2020
Жанр: боевик, триллер
Производство: США [Emmett/Furla/Oasis Films (EFO Films), SSS Entertainment, SSS Film Capital]
Режиссер: Мэтт Эскандари
В ролях: Чад Майкл Мюррэй, Брюс Уиллис, Ши Бакнер, Тайлер Джон Олсон, Лидия Халл, Равар Элиз Руперт, Натали ДиДонато, Джессика Абрамс, Сара Линн Херман, Жеф Холбрук
Сюжет фильма:
В дом Фрэнка — врача, потерявшего лицензию — врываются неизвестные. В ходе перестрелки один из налетчиков получает серьезное ранение. Фрэнк вынужден спасать жизнь преступника, иначе всей семье грозит ужасная смерть… Кто доживет до утра?

  • Мировая премьера: 22 мая 2020


Качество видео: WEB-DL 1080p

Продолжительность: 01:28:20
Формат: MKV
Видео: MPEG-4 AVC, 1920x960 (2.0:1), 23.976 fps, 6747 kbps
Аудио: русский, любительский многоголосый закадровый (AlphaProject), AC3 2.0, 48 kHz, 384 kbps

Код:

Общее
Полное имя                               : Survive.the.Night.2020.WEBRip.1080p-LQ.mkv
Формат                                   : Matroska
Версия формата                           : Version 2
Размер файла                             : 4,49 Гбайт
Продолжительность                        : 1 ч. 28 м.
Режим общего битрейта                    : Переменный
Общий поток                              : 7276 Кбит/сек
Программа кодирования                    : libmatroska 1.4.1
Библиотека кодирования                   : SolveigMM Matroska Muxer Version 1.0.1502.31

Видео
Идентификатор                            : 1
Формат                                   : AVC
Формат/Информация                        : Advanced Video Codec
Профиль формата                          : High@L4.1
Настройки формата                        : CABAC / 4 Ref Frames
Параметр CABAC формата                   : Да
Параметр RefFrames формата               : 4 кадра
Идентификатор кодека                     : V_MPEG4/ISO/AVC
Продолжительность                        : 1 ч. 28 м.
Вид битрейта                             : Переменный
Битрейт                                  : 6747 Кбит/сек
Номинальный битрейт                      : 8000 Кбит/сек
Максимальный битрейт                     : 8000 Кбит/сек
Ширина                                   : 1920 пикселей
Высота                                   : 960 пикселей
Соотношение сторон                       : 2,000
Режим частоты кадров                     : Постоянный
Частота кадров                           : 23,976 (24000/1001) кадра/сек
Стандарт вещания                         : Component
Цветовое пространство                    : YUV
Субдискретизация насыщенности            : 4:2:0
Битовая глубина                          : 8 бит
Тип развёртки                            : Прогрессивная
Бит/(Пиксели*Кадры)                      : 0.153
Размер потока                            : 4,16 Гбайт (93%)
Default                                  : Нет
Forced                                   : Нет
Цветовой диапазон                        : Limited
Основные цвета                           : BT.709
Характеристики трансфера                 : BT.709
Коэффициенты матрицы                     : BT.709

Аудио
Идентификатор                            : 2
Формат                                   : AC-3
Формат/Информация                        : Audio Coding 3
Коммерческое название                    : Dolby Digital
Идентификатор кодека                     : A_AC3
Продолжительность                        : 1 ч. 28 м.
Вид битрейта                             : Постоянный
Битрейт                                  : 384 Кбит/сек
Каналы                                   : 2 канала
ChannelLayout                            : L R
Частота                                  : 48,0 КГц
Частота кадров                           : 31,250 кадров/сек (1536 SPF)
Метод сжатия                             : С потерями
Размер потока                            : 243 Мбайт (5%)
Язык                                     : Russian
ServiceKind/String                       : Complete Main
Default                                  : Нет
Forced                                   : Нет

Этот торрент недоступен для скачивания без регистрации, однако доступен по публичной magnet-ссылке (источники с публичных трекеров). Перед использованием ссылки прочтите, пожалуйста Пользовательское соглашение, а также как можно дольше оставайтесь на раздаче! Для того, чтобы скачать сам торрент-файл (который видит больше источников), а также для того, чтобы поблагодарить релизера, вам необходимо зарегистрироваться. Если регистрироваться лень - вы можете также попробовать скачать релиз по нашим партнерским ссылкам ниже. Кроме того, зарегистрированным пользователям не показывается всплывающая реклама при скачивании.

[underver.se].t168901.torrent
Трекер: Зарегистрирован   [ 22.05.2020 22:19 ]  

Статус: T временная (by makkol at 22.05.2020 22:20)
Поблагодарили: пока никто не поблагодарил...
Тип торрента: публичный - доступные источники с открытых трекеров: 
Размер: 4,49 GB (занимает 1,03 DVDR, для записи нужно 2 болванки DVDR/RW)
 
 
Похожие темы
Форум Тема Автор Торрент Отв. Посл. сооб.
T Зарубежное кино [DVDRip, Low-Res HDRip, и т.д.] Дожить до утра / Survive the Night (Мэтт Эскандари) [2020 г., боевик, триллер, WEB-DLRip] MVO (AlphaProject) makkol
46 | 0

0 | 499

13

22.05.2020 22:13

xUSSR сериалы Дожить до любви [01-16 из 16] (Владимир Балкашинов) [2018 г., мелодрама, HDTVRip] 90ytr90
9 | 0

0 | 392

4

29.10.2018 16:41


Яндекс.Метрика powered by Sphinx


В Н И М А Н И Е
Сайт не распространяет и не хранит электронные версии произведений, а лишь бесплатно и без коммерческой выгоды (не требуя взамен платы,
SMS и т.д.) предоставляет доступ к создаваемому пользователями каталогу ссылок на торрент-файлы, которые содержат только списки хеш-сумм.
Убедительная просьба с жалобами обращаться напрямую к пользователю, разместившему торрент файл.

Вверх