Loading...
Error

Дожить до утра / Survive the Night (Мэтт Эскандари) [2020 г., боевик, триллер, WEB-DLRip] MVO (AlphaProject)

Статистика раздачи
Размер:  1,31 GB   |    Зарегистрирован:  5 дней   |    Скачан:  13 раз
Сидов:  1  |  0 KB/s  ]   Личеров:  0  |  0 KB/s  ]

* - сиды/пиры с внешних источников

   
 
Автор Сообщение

makkol Пол:Муж

22-Май-2020 22:13

Дожить до утра / Survive the Night


Год выпуска: 2020
Жанр: боевик, триллер
Производство: США [Emmett/Furla/Oasis Films (EFO Films), SSS Entertainment, SSS Film Capital]
Режиссер: Мэтт Эскандари
В ролях: Чад Майкл Мюррэй, Брюс Уиллис, Ши Бакнер, Тайлер Джон Олсон, Лидия Халл, Равар Элиз Руперт, Натали ДиДонато, Джессика Абрамс, Сара Линн Херман, Жеф Холбрук
Сюжет фильма:
В дом Фрэнка — врача, потерявшего лицензию — врываются неизвестные. В ходе перестрелки один из налетчиков получает серьезное ранение. Фрэнк вынужден спасать жизнь преступника, иначе всей семье грозит ужасная смерть… Кто доживет до утра?

  • Мировая премьера: 22 мая 2020


Качество видео: WEB-DLRip

Продолжительность: 01:28:20
Формат: AVI
Видео: XviD, 720x352, 23.976 fps, 1732 kbps
Аудио: русский, любительский многоголосый закадровый (AlphaProject), AC3 2.0, 48 kHz, 384 kbps

Код:

Общее
Полное имя                               : Survive.the.Night.2020.WEB-DRip.avi
Формат                                   : AVI
Формат/Информация                        : Audio Video Interleave
Профиль формата                          : OpenDML
Размер файла                             : 1,31 Гбайт
Продолжительность                        : 1 ч. 28 м.
Общий поток                              : 2129 Кбит/сек

Видео
Идентификатор                            : 0
Формат                                   : MPEG-4 Visual
Профиль формата                          : Advanced Simple@L5
Настройки формата                        : BVOP2 / Custom Matrix
Параметр BVOP формата                    : 2
Параметр QPel формата                    : Нет
Параметр GMC формата                     : Без точки перехода
Параметр матрицы формата                 : Выборочная
Идентификатор кодека                     : XVID
Идентификатор кодека/Подсказка           : XviD
Продолжительность                        : 1 ч. 28 м.
Битрейт                                  : 1732 Кбит/сек
Ширина                                   : 720 пикселей
Высота                                   : 352 пикселя
Соотношение сторон                       : 2,045
Частота кадров                           : 23,976 (24000/1001) кадра/сек
Цветовое пространство                    : YUV
Субдискретизация насыщенности            : 4:2:0
Битовая глубина                          : 8 бит
Тип развёртки                            : Прогрессивная
Метод сжатия                             : С потерями
Бит/(Пиксели*Кадры)                      : 0.285
Размер потока                            : 1,07 Гбайт (81%)
Библиотека кодирования                   : XviD 1.2.1 (UTC 2008-12-04)

Аудио
Идентификатор                            : 1
Формат                                   : AC-3
Формат/Информация                        : Audio Coding 3
Коммерческое название                    : Dolby Digital
Идентификатор кодека                     : 2000
Продолжительность                        : 1 ч. 28 м.
Вид битрейта                             : Постоянный
Битрейт                                  : 384 Кбит/сек
Каналы                                   : 2 канала
ChannelLayout                            : L R
Частота                                  : 48,0 КГц
Частота кадров                           : 31,250 кадров/сек (1536 SPF)
Метод сжатия                             : С потерями
Размер потока                            : 243 Мбайт (18%)
Выравнивание                             : Соединение по промежуткам
Продолжительность промежутка             : 32  мс. (0,77 видеокадр)
ServiceKind/String                       : Complete Main

Этот торрент недоступен для скачивания без регистрации, однако доступен по публичной magnet-ссылке (источники с публичных трекеров). Перед использованием ссылки прочтите, пожалуйста Пользовательское соглашение, а также как можно дольше оставайтесь на раздаче! Для того, чтобы скачать сам торрент-файл (который видит больше источников), а также для того, чтобы поблагодарить релизера, вам необходимо зарегистрироваться. Если регистрироваться лень - вы можете также попробовать скачать релиз по нашим партнерским ссылкам ниже. Кроме того, зарегистрированным пользователям не показывается всплывающая реклама при скачивании.

[underver.se].t168900.torrent
Трекер: Зарегистрирован   [ 22.05.2020 22:13 ]  

Статус: T временная (by makkol at 22.05.2020 22:14)
Поблагодарили: пока никто не поблагодарил...
Тип торрента: публичный - доступные источники с открытых трекеров: 
Размер: 1,31 GB (занимает 0,3 DVDR, для записи нужно 1 болванка DVDR/RW)
 
 
Похожие темы
Форум Тема Автор Торрент Отв. Посл. сооб.
xUSSR сериалы Дожить до любви [01-16 из 16] (Владимир Балкашинов) [2018 г., мелодрама, HDTVRip] 90ytr90
9 | 0

0 | 392

4

29.10.2018 16:41

T Зарубежное кино [HDDVDRip / BDRip / WEB-DL / HDTV 1080/720р] Дожить до утра / Survive the Night (Мэтт Эскандари) [2020 г., боевик, триллер, WEB-DL 1080p] MVO (AlphaProject) makkol
62 | 1

0 | 487

12

22.05.2020 22:19


Яндекс.Метрика powered by Sphinx


В Н И М А Н И Е
Сайт не распространяет и не хранит электронные версии произведений, а лишь бесплатно и без коммерческой выгоды (не требуя взамен платы,
SMS и т.д.) предоставляет доступ к создаваемому пользователями каталогу ссылок на торрент-файлы, которые содержат только списки хеш-сумм.
Убедительная просьба с жалобами обращаться напрямую к пользователю, разместившему торрент файл.

Вверх