Loading...
Error

Убийства по открыткам / The Postcard Killings (Данис Танович) [2020 г., детектив, криминал, драма, BDRip-AVC] VO (zamez) + Original + Sub

Статистика раздачи
Размер:  2,57 GB   |    Зарегистрирован:  2 месяца 19 дней   |    Скачан:  10 раз

Полного источника не было: 18 дней

Сидов:  0  |  0 KB/s  ]   Личеров:  0  |  0 KB/s  ]

* - сиды/пиры с внешних источников

   
 
Автор Сообщение

makkol Пол:Муж

18-Май-2020 22:01

Убийства по открыткам / The Postcard Killings


Год выпуска: 2020
Жанр: детектив, криминал, драма
Производство: Великобритания , США [Good Films Collective, Hindsight Media, K. JAM Media]
Режиссер: Данис Танович
В ролях: Джеффри Дин Морган, Фамке Янссен, Каш Джамбо, Йоахим Круль, Стивен Макинтош, Наоми Баттрик, Руаири О’Коннор, Эва Рёзе, Лукас Лугрэн, Дэнис О’Хэр
Сюжет фильма:
Лондон, Мадрид, Стокгольм… В Европе орудует жестокий и изощрённый маньяк-убийца. Перемещаясь из города в город, он дразнит полицию, посылая журналистам подсказки в виде открыток из музеев. Одной из его жертв становится дочь опытного и харизматичного детектива из Нью-Йорка, Джейкоба Кэнона. Теперь его цель — найти убийцу и отомстить.

  • Мировая премьера: 13 марта 2020
  • Российская премьера: 25 июня 2020
  • Дата релиза в iTunes: 3 августа 2020


Качество видео: BDRip-AVC

Продолжительность: 01:44:09
Формат: MKV
Видео: MPEG-4 AVC, 1024x428 (2.40:1), 23.976 fps, 2637 kbps
Аудио #1: русский, любительский одноголосый закадровый (zamez), AC3 5.1, 48 kHz, 448 kbps
Аудио #2: английский, оригинал, AC3 5.1, 48 kHz, 448 kbps
Субтитры: русские, английские вшитые отключаемые

Код:

Общее
Уникальный идентификатор : 17292498259681492805405166006509051109 (0xD0269FD4A67809365F10673CEFD1CE5)
Полное имя : The.Postcard.Killings.2020.AVO.BDRip.2.57Gb.x264.mkv
Формат : Matroska
Версия формата : Version 4
Размер файла : 2,57 Гбайт
Продолжительность : 1 ч. 44 м.
Общий поток : 3527 Кбит/сек
Название фильма : Убийства по открыткам / The Postcard Killings (2020)
Дата кодирования : UTC 2020-05-18 08:24:09
Программа кодирования : mkvmerge v46.0.0 ('No Deeper Escape') 64-bit
Библиотека кодирования : libebml v1.3.10 + libmatroska v1.5.2
Обложка : Yes
Attachments : cover.jpg

Видео
Идентификатор : 1
Формат : AVC
Формат/Информация : Advanced Video Codec
Профиль формата : High@L4.1
Настройки формата : CABAC / 10 Ref Frames
Параметр CABAC формата : Да
Параметр RefFrames формата : 10 кадров
Идентификатор кодека : V_MPEG4/ISO/AVC
Продолжительность : 1 ч. 44 м.
Битрейт : 2637 Кбит/сек
Ширина : 1024 пикселя
Высота : 428 пикселей
Соотношение сторон : 2,40:1
Режим частоты кадров : Постоянный
Частота кадров : 23,976 кадра/сек
Цветовое пространство : YUV
Субдискретизация насыщенности : 4:2:0
Битовая глубина : 8 бит
Тип развёртки : Прогрессивная
Бит/(Пиксели*Кадры) : 0.251
Размер потока : 1,91 Гбайт (75%)
Заголовок : #stillet
Библиотека кодирования : x264 core 152 r2851bm ba24899
Настройки программы : cabac=1 / ref=10 / deblock=1:-3:-3 / analyse=0x3:0x113 / me=umh / subme=11 / psy=1 / psy_rd=1.00:0.15 / mixed_ref=1 / me_range=32 / chroma_me=1 / trellis=2 / 8x8dct=1 / cqm=0 / deadzone=21,11 / fast_pskip=0 / chroma_qp_offset=-3 / threads=8 / lookahead_threads=3 / sliced_threads=0 / nr=0 / decimate=0 / interlaced=0 / bluray_compat=0 / constrained_intra=0 / bframes=10 / b_pyramid=2 / b_adapt=2 / b_bias=0 / direct=3 / weightb=1 / open_gop=0 / weightp=2 / keyint=240 / keyint_min=23 / scenecut=40 / intra_refresh=0 / rc=2pass / mbtree=0 / bitrate=2637 / ratetol=1.0 / qcomp=0.60 / qpmin=0 / qpmax=69 / qpstep=4 / cplxblur=20.0 / qblur=0.5 / ip_ratio=1.40 / pb_ratio=1.30 / aq=1:1.00
Язык : English
Default : Да
Forced : Нет

Аудио #1
Идентификатор : 2
Формат : AC-3
Формат/Информация : Audio Coding 3
Коммерческое название : Dolby Digital
Идентификатор кодека : A_AC3
Продолжительность : 1 ч. 44 м.
Вид битрейта : Постоянный
Битрейт : 448 Кбит/сек
Каналы : 6 каналов
ChannelLayout : L R C LFE Ls Rs
Частота : 48,0 КГц
Частота кадров : 31,250 кадров/сек (1536 SPF)
Метод сжатия : С потерями
Размер потока : 334 Мбайт (13%)
Заголовок : AVO | zamez
Язык : Russian
Default : Да
Forced : Да

Аудио #2
Идентификатор : 3
Формат : AC-3
Формат/Информация : Audio Coding 3
Коммерческое название : Dolby Digital
Идентификатор кодека : A_AC3
Продолжительность : 1 ч. 44 м.
Вид битрейта : Постоянный
Битрейт : 448 Кбит/сек
Каналы : 6 каналов
ChannelLayout : L R C LFE Ls Rs
Частота : 48,0 КГц
Частота кадров : 31,250 кадров/сек (1536 SPF)
Метод сжатия : С потерями
Размер потока : 334 Мбайт (13%)
Заголовок : Original
Язык : English
Default : Нет
Forced : Нет

Текст #1
Идентификатор : 4
Формат : UTF-8
Идентификатор кодека : S_TEXT/UTF8
Идентификатор кодека/Информация : UTF-8 Plain Text
Продолжительность : 1 ч. 36 м.
Битрейт : 102 бит/сек
ElementCount : 1320
Размер потока : 72,3 Кбайт (0%)
Заголовок : Full
Язык : Russian
Default : Да
Forced : Нет

Текст #2
Идентификатор : 5
Формат : UTF-8
Идентификатор кодека : S_TEXT/UTF8
Идентификатор кодека/Информация : UTF-8 Plain Text
Продолжительность : 1 ч. 39 м.
Битрейт : 56 бит/сек
ElementCount : 1297
Размер потока : 41,2 Кбайт (0%)
Заголовок : SDH
Язык : English
Default : Нет
Forced : Нет

Меню
00:00:00.000 : en:Chapter 01
00:10:55.196 : en:Chapter 02
00:25:18.642 : en:Chapter 03
00:36:15.673 : en:Chapter 04
00:47:14.498 : en:Chapter 05
00:58:21.998 : en:Chapter 06
01:17:56.881 : en:Chapter 07
01:37:36.267 : en:Chapter 08

Этот торрент недоступен для скачивания без регистрации, однако доступен по публичной magnet-ссылке (источники с публичных трекеров). Перед использованием ссылки прочтите, пожалуйста Пользовательское соглашение, а также как можно дольше оставайтесь на раздаче! Для того, чтобы скачать сам торрент-файл (который видит больше источников), а также для того, чтобы поблагодарить релизера, вам необходимо зарегистрироваться. Если регистрироваться лень - вы можете также попробовать скачать релиз по нашим партнерским ссылкам ниже. Кроме того, зарегистрированным пользователям не показывается всплывающая реклама при скачивании.

[underver.se].t168434.torrent
Трекер: Зарегистрирован   [ 18.05.2020 22:01 ]  

Статус: проверено (by makkol at 18.05.2020 22:01)
Поблагодарили: 1 человек
Тип торрента: публичный - доступные источники с открытых трекеров: 
Размер: 2,57 GB (занимает 0,59 DVDR, для записи нужно 1 болванка DVDR/RW)
 
 
Похожие темы
Форум Тема Автор Торрент Отв. Посл. сооб.
Зарубежное кино [DVDRip, Low-Res HDRip, и т.д.] Убийства по открыткам / The Postcard Killings (Данис Танович) [2020 г., детектив, криминал, драма, BDRip] VO (zamez) makkol
46 | 2

0 | 742

24

18.05.2020 21:56

Зарубежное кино [DVDRip, Low-Res HDRip, и т.д.] Убийства по открыткам / The Postcard Killings (Данис Танович) [2020 г., детектив, криминал, драма, BDRip] Dub (iTunes) makkol
59 | 1

0 | 282

21

04.06.2020 11:38

Зарубежное кино [DVDRip, Low-Res HDRip, и т.д.] Убийства по открыткам / The Postcard Killings (Данис Танович) [2020 г., детектив, криминал, драма, BDRip] Dub (iTunes) + Original + Sub makkol
9 | 0

0 | 420

11

04.06.2020 14:36

xUSSR сериалы Убийства по пятницам [01-04 из 04] (Карен Захаров) [2018 г., детектив, WEB-DLRip] 90ytr90
2 | 0

0 | 785

21

17.11.2018 16:31

Зарубежное кино [DVD / HDDVD / BD / Remux] Убийства по открыткам / The Postcard Killings (Данис Танович) [2020 г., детектив, криминал, драма, BD-Remux] Dub (iTunes) + Original + Sub makkol
37 | 1

0 | 356

7

04.06.2020 21:14

Зарубежное кино [HDDVDRip / BDRip / WEB-DL / HDTV 1080/720р] Убийства по открыткам / The Postcard Killings (Данис Танович) [2020 г., детектив, криминал, драма, BDRip 1080p] VO (zamez) makkol
39 | 2

0 | 807

24

18.05.2020 22:06

Зарубежное кино [HDDVDRip / BDRip / WEB-DL / HDTV 1080/720р] Убийства по открыткам / The Postcard Killings (Данис Танович / Danis Tanovic) [2020, Детектив, криминал, драма, BDRip 720p] Dub (iTunes) + Original + Sub (rus, eng) Konin
222 | 6

0 | 280

26

05.06.2020 15:26

Зарубежное кино [HDDVDRip / BDRip / WEB-DL / HDTV 1080/720р] Убийства по открыткам / The Postcard Killings (Данис Танович / Danis Tanovic) [2020, Детектив, криминал, драма, BDRip 1080p] Dub (iTunes) + Original + Sub (rus, eng) Konin
317 | 10

0 | 556

27

05.06.2020 15:27


Яндекс.Метрика powered by Sphinx


В Н И М А Н И Е
Сайт не распространяет и не хранит электронные версии произведений, а лишь бесплатно и без коммерческой выгоды (не требуя взамен платы,
SMS и т.д.) предоставляет доступ к создаваемому пользователями каталогу ссылок на торрент-файлы, которые содержат только списки хеш-сумм.
Убедительная просьба с жалобами обращаться напрямую к пользователю, разместившему торрент файл.

Вверх