Loading...
Error

Загрузка / Upload (Сезон 1, Серия 1-10 из 10) (Джеффри Блитц) [2020, Фантастика, комедия, детектив,WEB-DLRip 1080p] [NewStudio + AlexFilm+Eng]+[Subs Rus , ENG]

Статистика раздачи
Размер:  8,06 GB   |    Зарегистрирован:  2 месяца 25 дней   |    Скачан:  37 раз
Сидов:  2  |  0 KB/s  ]   Личеров:  0  |  0 KB/s  ]

* - сиды/пиры с внешних источников

   
 
Автор Сообщение

Nikolai.Baranov Пол:Муж

13-Май-2020 15:12





Загрузка / Upload - (Сезон 1, Серия 1-10 из 10) - Полный Комплект



Год выпуска: 2020
Выпущено: США , Amazon Studios, Baral Waley Productions, RPE (Reunion Pacific Entertainment)
Жанр: Фантастика, комедия, детектив
Продолжительность: 00:30:00
Сезон:1
Серия:1-10
Количество серий в сезоне:10

Озвучка #1: Профессиональный многоголосый - NewStudio - Русский

Озвучка #2: Профессиональный многоголосый - AlexFilm - Русский

Озвучка #3: Профессиональный многоголосый -Английский - Оригинал

Субтитры: Russian, English (SDH)


Релиз Без Рекламы - Ненормативная лексика

MDB 8.2

Режиссеры:
Джеффри Блитц

В ролях: Робби Амелл, Энди Алло, Кевин Бигли, Аллегра Роуз Эдвардс, Оуэн Дэниелс, Андреа Розен, Джордан Джонсон-Хиндс, Джош Бандэй, Уильям Б. Дэвис, Элизабет Бауэн

[align=center]
В будущем сознание умирающего человека можно будет переселить в цифровой мир. Именно по этому пути идет программист Нэйтан: после смерти в ДТП он переносится в виртуальный мир, где влюбляется в реальную девушку Нору.



Качество : -WEB-DLRip - HEVC 10bit - 1080p.

Формат: MKV

Видео кодек: H265

Видео: 2721Кбит/сек,1920х1080(16.9),в 23.976кадр/сек, HEVC (Main10@L4@Main)

Аудио Кодек:AC3

Аудио #2: MVO AlexFilm @DD5.1 AC3, 384 Kbps, 48.0 KHz, 6 ch- AlexFilm -Русский

Аудио #3: MVO NewStudio @DD5.1 AC3, 384 Kbps, 48.0 KHz, 6 ch- NewStudio -Русский

Аудио #6: Original@DD5.1 E-AC3 , 640 Kbps, 48.0 KHz, 6 ch - English - Оригинал

Звуковая дорожка сделана путем наложения чистого голоса озвучивателей на центральный канал оригинальной дорожки. Качество идентично звуковой дорожке.


01. Welcome to Upload / Добро пожаловать
02. Five Stars / Пять звёзд
03. The Funeral / Панихида
04. Sex Suit / Костюм для секса
05. The Grey Market / Серый рынок
06. Sleepover / Ночёвка в гостях
07. Bring Your Dad to Work Day / Визит папы
08. Shopping Other Digital After-Lives / Другой виртуальный мир
09. Update Eve / Обновление
10. Freeyond / Бесплатный рай


Общее
Уникальный идентификатор : 68863539074268472788977487450910235102 (0x33CEA29C5566C06D8BF82F046EB819DE)
Полное имя : E:\RussianPatriot\Загрузка - Upload\Upload_2020_S01_HEVC- 10Bit_Н265_DD5.1_N.B_HD_1080_2xRus_Eng\Upload_2020_S01E01_HEVC_Н265_DD5.1_N.B_HD_1080_2xRus_Eng.mkv
Формат : Matroska
Версия формата : Version 4
Размер файла : 1,33 Гбайт
Продолжительность : 45 м. 56 с.
Общий поток : 4 132 Кбит/сек
Название фильма : Upload 2020 S01E01 @ Nikolai.Baranov & PIRATIYA
Дата кодирования : UTC 2020-05-11 18:57:48
Программа кодирования : mkvmerge v46.0.0 ('No Deeper Escape') 64-bit
Библиотека кодирования : libebml v1.3.10 + libmatroska v1.5.2 / Lavf58.29.100

Видео
Идентификатор : 1
Формат : HEVC
Формат/Информация : High Efficiency Video Coding
Профиль формата : Main 10@L4@Main
Идентификатор кодека : V_MPEGH/ISO/HEVC
Продолжительность : 45 м. 56 с.
Битрейт : 2 721 Кбит/сек
Ширина : 1 920 пикселей
Высота : 1 080 пикселей
Соотношение сторон : 16:9
Режим частоты кадров : Постоянный
Частота кадров : 23,976 (24000/1001) кадра/сек
Цветовое пространство : YUV
Субдискретизация насыщенности : 4:2:0
Битовая глубина : 10 бит
Бит/(Пиксели*Кадры) : 0.055
Размер потока : 894 Мбайт (66%)
Заголовок : Upload_2020_S01E01_HEVC_Н265_DD5.1_N.B_HD_1080_2xRus_Eng
Библиотека кодирования : x265 3.2+35-acc5d16999e2:[Windows][GCC 9.2.1][64 bit] 10bit
Настройки программы : cpuid=1111039 / frame-threads=4 / numa-pools=24 / wpp / no-pmode / no-pme / no-psnr / no-ssim / log-level=2 / input-csp=1 / input-res=1920x1080 / interlace=0 / total-frames=0 / level-idc=0 / high-tier=1 / uhd-bd=0 / ref=4 / no-allow-non-conformance / no-repeat-headers / annexb / no-aud / no-hrd / info / hash=0 / no-temporal-layers / open-gop / min-keyint=23 / keyint=250 / gop-lookahead=0 / bframes=8 / b-adapt=2 / b-pyramid / bframe-bias=0 / rc-lookahead=80 / lookahead-slices=4 / scenecut=40 / hist-scenecut=0 / radl=0 / no-splice / no-intra-refresh / ctu=64 / min-cu-size=8 / no-rect / no-amp / max-tu-size=32 / tu-inter-depth=1 / tu-intra-depth=1 / limit-tu=0 / rdoq-level=2 / dynamic-rd=0.00 / no-ssim-rd / signhide / no-tskip / nr-intra=0 / nr-inter=0 / no-constrained-intra / no-strong-intra-smoothing / max-merge=3 / limit-refs=3 / limit-modes / me=3 / subme=5 / merange=57 / temporal-mvp / no-frame-dup / no-hme / weightp / no-weightb / no-analyze-src-pics / deblock=0:0 / sao / no-sao-non-deblock / rd=4 / selective-sao=4 / no-early-skip / rskip / no-fast-intra / no-tskip-fast / no-cu-lossless / no-b-intra / no-splitrd-skip / rdpenalty=0 / psy-rd=1.30 / psy-rdoq=2.00 / no-rd-refine / no-lossless / cbqpoffs=0 / crqpoffs=0 / rc=crf / crf=19.5 / qcomp=0.60 / qpstep=4 / stats-write=0 / stats-read=0 / ipratio=1.40 / pbratio=1.30 / aq-mode=4 / aq-strength=1.10 / cutree / zone-count=0 / no-strict-cbr / qg-size=32 / no-rc-grain / qpmax=69 / qpmin=0 / no-const-vbv / sar=1 / overscan=0 / videoformat=5 / range=0 / colorprim=2 / transfer=2 / colormatrix=2 / chromaloc=0 / display-window=0 / cll=0,0 / min-luma=0 / max-luma=1023 / log2-max-poc-lsb=8 / vui-timing-info / vui-hrd-info / slices=1 / no-opt-qp-pps / no-opt-ref-list-length-pps / no-multi-pass-opt-rps / scenecut-bias=0.05 / hist-threshold=0.01 / no-opt-cu-delta-qp / no-aq-motion / no-hdr10 / no-hdr10-opt / no-dhdr10-opt / no-idr-recovery-sei / analysis-reuse-level=0 / analysis-save-reuse-level=0 / analysis-load-reuse-level=0 / scale-factor=0 / refine-intra=0 / refine-inter=0 / refine-mv=1 / refine-ctu-distortion=0 / no-limit-sao / ctu-info=0 / no-lowpass-dct / refine-analysis-type=0 / copy-pic=1 / max-ausize-factor=1.0 / no-dynamic-refine / no-single-sei / no-hevc-aq / no-svt / no-field / qp-adaptation-range=1.00 / no-scenecut-aware-qpconformance-window-offsets / right=0 / bottom=0
Язык : Russian
Default : Да
Forced : Нет
Цветовой диапазон : Limited

Аудио #1
Идентификатор : 4
Формат : AC-3
Формат/Информация : Audio Coding 3
Коммерческое название : Dolby Digital
Идентификатор кодека : A_AC3
Продолжительность : 45 м. 56 с.
Вид битрейта : Постоянный
Битрейт : 384 Кбит/сек
Каналы : 6 каналов
Channel layout : L R C LFE Ls Rs
Частота : 48,0 КГц
Частота кадров : 31,250 кадров/сек (1536 SPF)
Метод сжатия : С потерями
Размер потока : 126 Мбайт (9%)
Заголовок : MVO AlexFilm @DD5.1 AC3, 384 Kbps, 48.0 KHz, 6 ch
Язык : Russian
Service kind : Complete Main
Default : Да
Forced : Нет

Аудио #2
Идентификатор : 5
Формат : AC-3
Формат/Информация : Audio Coding 3
Коммерческое название : Dolby Digital
Идентификатор кодека : A_AC3
Продолжительность : 45 м. 56 с.
Вид битрейта : Постоянный
Битрейт : 384 Кбит/сек
Каналы : 6 каналов
Channel layout : L R C LFE Ls Rs
Частота : 48,0 КГц
Частота кадров : 31,250 кадров/сек (1536 SPF)
Метод сжатия : С потерями
Размер потока : 126 Мбайт (9%)
Заголовок : MVO NewStudio @DD5.1 AC3, 384 Kbps, 48.0 KHz, 6 ch
Язык : Russian
Service kind : Complete Main
Default : Нет
Forced : Нет

Аудио #3
Идентификатор : 6
Формат : E-AC-3
Формат/Информация : Enhanced AC-3
Коммерческое название : Dolby Digital Plus
Идентификатор кодека : A_EAC3
Продолжительность : 45 м. 56 с.
Вид битрейта : Постоянный
Битрейт : 640 Кбит/сек
Каналы : 6 каналов
Channel layout : L R C LFE Ls Rs
Частота : 48,0 КГц
Частота кадров : 31,250 кадров/сек (1536 SPF)
Метод сжатия : С потерями
Размер потока : 210 Мбайт (15%)
Заголовок : Original@DD5.1 E-AC3 , 640 Kbps, 48.0 KHz, 6 ch
Язык : English
Service kind : Complete Main
Default : Нет
Forced : Нет

Текст #1
Идентификатор : 2
Формат : UTF-8
Идентификатор кодека : S_TEXT/UTF8
Идентификатор кодека/Информация : UTF-8 Plain Text
Продолжительность : 33 м. 15 с.
Битрейт : 7 бит/сек
Count of elements : 28
Размер потока : 1,72 Кбайт (0%)
Заголовок : Добро пожаловать в Загрузку-Russian-Forced
Язык : Russian
Default : Да
Forced : Нет

Текст #2
Идентификатор : 3
Формат : UTF-8
Идентификатор кодека : S_TEXT/UTF8
Идентификатор кодека/Информация : UTF-8 Plain Text
Продолжительность : 43 м. 29 с.
Битрейт : 130 бит/сек
Count of elements : 738
Размер потока : 41,5 Кбайт (0%)
Заголовок : Добро пожаловать в Загрузку-Russian
Язык : Russian
Default : Нет
Forced : Нет

Текст #3
Идентификатор : 7
Формат : UTF-8
Идентификатор кодека : S_TEXT/UTF8
Идентификатор кодека/Информация : UTF-8 Plain Text
Продолжительность : 43 м. 48 с.
Битрейт : 82 бит/сек
Count of elements : 965
Размер потока : 26,5 Кбайт (0%)
Заголовок : Welcome to Upload-Original - SDH
Язык : English
Default : Нет
Forced : Нет

Меню
00:00:00.000 : ru:Глава 01 / ru:Глава 01 / ru:Глава 01 / ru:Глава 01 / ru:Глава 01 / ru:Глава 01 / ru:Глава 01



1-сезон.

1. Открыть торрент
2. Снять галки с тех файлов торрента, которые мы не хотим закачивать. Оставляем только на нужных нам файлах (файле).
3. Нажать О.К.

В клиенте utorrent

Инструкция

1) Открыть торрент


2) Снять галки с тех файлов торрента, которые мы не хотим закачивать:

* либо вручную, снимая с каждого файла галку( скрин №1)
* либо, нажав кнопку "Снять метки (Select None)", сняв сразу со всех файлов(скрин №2)
№1
№2
Оставляем только на нужных нам файлах (файле).
3)Нажать О.К






Релиз от: Nikolai.Baranov & PIRATIYA . Поблагодарить:
ЯД: 410017546713876








Время раздачи : 24/7

Этот торрент недоступен для скачивания без регистрации, однако доступен по публичной magnet-ссылке (источники с публичных трекеров). Перед использованием ссылки прочтите, пожалуйста Пользовательское соглашение, а также как можно дольше оставайтесь на раздаче! Для того, чтобы скачать сам торрент-файл (который видит больше источников), а также для того, чтобы поблагодарить релизера, вам необходимо зарегистрироваться. Если регистрироваться лень - вы можете также попробовать скачать релиз по нашим партнерским ссылкам ниже. Кроме того, зарегистрированным пользователям не показывается всплывающая реклама при скачивании.

[underver.se].t168047.torrent
Трекер: Зарегистрирован   [ 13.05.2020 15:12 ]  

Статус: проверено (by Inspektor_49 at 16.05.2020 00:00)
Поблагодарили: 3 человека
Тип торрента: публичный - доступные источники с открытых трекеров: 
Размер: 8,06 GB (занимает 1,84 DVDR, для записи нужно 2 болванки DVDR/RW)
 
 
Похожие темы
Форум Тема Автор Торрент Отв. Посл. сооб.
Зарубежные сериалы Загрузка / Upload / Сезон: 1 / Серии: 1-10 из 10 (Джеффри Блитц) [2020, фантастика, комедия, детектив, WEBRip] MVO (AlexFilm) + Original + Sub (Rus/Eng) Konin
37 | 3

0 | 286

4

27.06.2020 15:10

Зарубежные сериалы Загрузка / Upload / Сезон: 1 / Серии: 1-10 из 10 (Джеффри Блитц) [2020, фантастика, комедия, детектив, WEBRip] MVO (NewStudio) + Original + Sub (Rus/Eng) Konin
690 | 63

0 | 316

3

27.06.2020 15:11

Зарубежные сериалы Загрузка / Upload / Сезон: 1 / Серии: 1-10 из 10 (Джеффри Блитц) [2020, фантастика, комедия, детектив, WEBRip] MVO (LostFilm) + Original + Sub (Rus/Eng) Konin
46 | 6

0 | 494

24

27.06.2020 15:12


Яндекс.Метрика powered by Sphinx


В Н И М А Н И Е
Сайт не распространяет и не хранит электронные версии произведений, а лишь бесплатно и без коммерческой выгоды (не требуя взамен платы,
SMS и т.д.) предоставляет доступ к создаваемому пользователями каталогу ссылок на торрент-файлы, которые содержат только списки хеш-сумм.
Убедительная просьба с жалобами обращаться напрямую к пользователю, разместившему торрент файл.

Вверх