Loading...
Error

Морские паразиты / Sea Fever (Ниса Хардиман) [2019 г., ужасы, фантастика, WEB-DL 1080p] DVO (LakeFilms) + Original

Статистика раздачи
Размер:  3,75 GB   |    Зарегистрирован:  5 месяцев 6 дней   |    Скачан:  32 раза

Полного источника не было: 40 минут

Сидов:  0  |  0 KB/s  ]   Личеров:  0  |  0 KB/s  ]

* - сиды/пиры с внешних источников

   
 
Автор Сообщение

makkol Пол:Муж

10-Апр-2020 21:13

Морские паразиты / Sea Fever
«Нечто из глубин»


Год выпуска: 2019
Жанр: ужасы, фантастика
Производство: Ирландия , США , Великобритания , Швеция , Бельгия [Bright Moving Pictures, Creativity Capital, Fantastic Films]
Режиссер: Ниса Хардиман
В ролях: Конни Нильсен, Гермиона Корфилд, Дугрей Скотт, Олуэн Фуэре, Джек Хикки, Ардалан Эсмаили, Эли Буаказе
Сюжет фильма:
Изучающая биологию и природные аномалии студентка Шивон отправляется проходить практику на рыболовецкое судно. Поездка обещает принести новые впечатления и богатый материал для научных исследований. Однако корабль под управлением капитана и его жены оказывается в «запретной зоне». Команде предстоит столкнуться с неизведанным и опасным морским чудовищем... Судьба всех находящихся на борту внезапно оказывается в руках студентки. Сумеет ли Шивон что-то предпринять, прежде чем экипаж в полном составе отправится на тот свет?

  • Мировая премьера: 5 сентября 2019
  • Российская премьера: 30 апреля 2020


Качество видео: WEB-DL 1080p [AMAZON Version]

Продолжительность: 01:34:42
Формат: MKV
Видео: MPEG-4 AVC, 1920x800 (2.40:1), 23.976 fps, 4898 kbps
Аудио #1: русский, любительский двухголосый закадровый (LakeFilms), AC3 2.0, 48 kHz, 384 kbps - присутствует ненормативная лексика!
Аудио #2: английский, оригинал, AC3 5.1, 48 kHz, 384 kbps
Субтитры: английские вшитые отключаемые

Код:

Источник: Sea.Fever.2019.1080p.AMZN.WEB-DL.DD5.1.H.264-NTG
General
Unique ID : 234966067020399826696035455444530336945 (0xB0C4D18537061535991BFB342FB594B1)
Complete name : Sea.Fever.2019.AMZN.WEB-DL.1080p.mkv
Format : Matroska
Format version : Version 4
File size : 3.75 GiB
Duration : 1 h 34 min
Overall bit rate : 5 668 kb/s
Encoded date : UTC 2020-04-11 11:45:40
Writing application : mkvmerge v7.1.0 ('Good Love') 64bit built on Jul 27 2014 13:06:55
Writing library : libebml v1.3.0 + libmatroska v1.4.1

Video
ID : 1
Format : AVC
Format/Info : Advanced Video Codec
Format profile : High@L4
Format settings : CABAC / 4 Ref Frames
Format settings, CABAC : Yes
Format settings, Reference fra : 4 frames
Codec ID : V_MPEG4/ISO/AVC
Duration : 1 h 34 min
Bit rate mode : Constant
Bit rate : 4 898 kb/s
Nominal bit rate : 10 000 kb/s
Width : 1 920 pixels
Height : 800 pixels
Display aspect ratio : 2.40:1
Frame rate mode : Constant
Frame rate : 23.976 (24000/1001) FPS
Color space : YUV
Chroma subsampling : 4:2:0
Bit depth : 8 bits
Scan type : Progressive
Bits/(Pixel*Frame) : 0.133
Stream size : 3.24 GiB (86%)
Language : English
Default : Yes
Forced : No
Color range : Limited
Color primaries : BT.709
Transfer characteristics : BT.709
Matrix coefficients : BT.709

Audio #1
ID : 2
Format : AC-3
Format/Info : Audio Coding 3
Commercial name : Dolby Digital
Codec ID : A_AC3
Duration : 1 h 34 min
Bit rate mode : Constant
Bit rate : 384 kb/s
Channel(s) : 2 channels
Channel layout : L R
Sampling rate : 48.0 kHz
Frame rate : 31.250 FPS (1536 SPF)
Compression mode : Lossy
Stream size : 260 MiB (7%)
Title : LakeFilms
Language : Russian
Service kind : Complete Main
Default : Yes
Forced : No

Audio #2
ID : 3
Format : AC-3
Format/Info : Audio Coding 3
Commercial name : Dolby Digital
Codec ID : A_AC3
Duration : 1 h 34 min
Bit rate mode : Constant
Bit rate : 384 kb/s
Channel(s) : 6 channels
Channel layout : L R C LFE Ls Rs
Sampling rate : 48.0 kHz
Frame rate : 31.250 FPS (1536 SPF)
Compression mode : Lossy
Stream size : 260 MiB (7%)
Language : English
Service kind : Complete Main
Default : No
Forced : No

Text #1
ID : 4
Format : UTF-8
Codec ID : S_TEXT/UTF8
Codec ID/Info : UTF-8 Plain Text
Duration : 1 h 34 min
Bit rate : 37 b/s
Count of elements : 927
Stream size : 25.6 KiB (0%)
Language : English
Default : No
Forced : No

Text #2
ID : 5
Format : UTF-8
Codec ID : S_TEXT/UTF8
Codec ID/Info : UTF-8 Plain Text
Duration : 1 h 34 min
Bit rate : 43 b/s
Count of elements : 1330
Stream size : 30.5 KiB (0%)
Title : SDH
Language : English
Default : No
Forced : No

Menu
00:00:00.000 : en:1
00:09:58.084 : en:2
00:19:52.084 : en:3
00:29:38.084 : en:4
00:37:57.084 : en:5
00:52:52.084 : en:6
01:02:56.084 : en:7
01:11:35.084 : en:8
01:22:04.084 : en:9
01:28:31.084 : en:10

Этот торрент недоступен для скачивания без регистрации, однако доступен по публичной magnet-ссылке (источники с публичных трекеров). Перед использованием ссылки прочтите, пожалуйста Пользовательское соглашение, а также как можно дольше оставайтесь на раздаче! Для того, чтобы скачать сам торрент-файл (который видит больше источников), а также для того, чтобы поблагодарить релизера, вам необходимо зарегистрироваться. Если регистрироваться лень - вы можете также попробовать скачать релиз по нашим партнерским ссылкам ниже. Кроме того, зарегистрированным пользователям не показывается всплывающая реклама при скачивании.

[underver.se].t164840.torrent
Трекер: Зарегистрирован   [ 12.04.2020 11:14 ]  

Статус: проверено (by makkol at 12.04.2020 11:14)
Поблагодарили: 1 человек
Тип торрента: публичный - доступные источники с открытых трекеров: 
Размер: 3,75 GB (занимает 0,86 DVDR, для записи нужно 1 болванка DVDR/RW)
 
 
Похожие темы
Форум Тема Автор Торрент Отв. Посл. сооб.
Зарубежное кино [DVDRip, Low-Res HDRip, и т.д.] Морские паразиты / Sea Fever (Ниса Хардиман) [2019 г., ужасы, фантастика, WEB-DLRip] DVO (LakeFilms) + Original makkol
2 | 0

1 | 1692

35

12.04.2020 11:23

Зарубежное кино [DVDRip, Low-Res HDRip, и т.д.] Морские паразиты / Sea Fever (Ниса Хардиман) [2019 г., ужасы, фантастика, HDRip] VO (zamez) makkol
25 | 0

0 | 748

11

21.05.2020 10:47

Зарубежное кино [DVDRip, Low-Res HDRip, и т.д.] Морские паразиты / Sea Fever (Ниса Хардиман / Neasa Hardiman) [2019 г., ужасы, фантастика, BDRip] AVO (Визгунов) 90ytr90
33 | 1

0 | 481

2

22.06.2020 10:30

Зарубежное кино [DVDRip, Low-Res HDRip, и т.д.] Морские паразиты / Sea Fever (Ниса Хардиман / Neasa Hardiman) [2019 г., ужасы, фантастика, BDRip-AVC] AVO (Визгунов) + Original (Eng) + Sub (Eng) 90ytr90
22 | 4

0 | 492

9

23.06.2020 10:22

Зарубежное кино [DVDRip, Low-Res HDRip, и т.д.] Морские паразиты / Sea Fever (Ниса Хардиман / Neasa Hardiman) [2019 г., ужасы, фантастика, BDRip] Dub (iTunes) 90ytr90
828 | 18

0 | 283

18

20.08.2020 08:22

Зарубежное кино [DVDRip, Low-Res HDRip, и т.д.] Морские паразиты / Sea Fever (Ниса Хардиман / Neasa Hardiman) [2019 г., ужасы, фантастика, BDRip-AVC] Dub (iTunes) + Original (Eng) + Sub (Rus, Eng) 90ytr90
123 | 6

0 | 257

6

20.08.2020 08:28

T Зарубежное кино [HDDVDRip / BDRip / WEB-DL / HDTV 1080/720р] Морские паразиты / Sea Fever (Ниса Хардиман) [2019 г., ужасы, фантастика, WEB-DL 720p] DVO (@MUZOBOZ@) makkol
18 | 0

0 | 978

11

10.04.2020 21:09

Зарубежное кино [HDDVDRip / BDRip / WEB-DL / HDTV 1080/720р] Морские паразиты / Sea Fever (Ниса Хардиман) [2019 г., ужасы, фантастика, BDRip 1080p] VO (zamez) makkol
7 | 1

0 | 729

13

21.05.2020 10:52

Зарубежное кино [HDDVDRip / BDRip / WEB-DL / HDTV 1080/720р] Морские паразиты / Sea Fever (Ниса Хардиман / Neasa Hardiman) [2019 г., ужасы, фантастика, BDRip 720p] AVO (Визгунов) + Original (Eng) + Sub (Eng) 90ytr90
10 | 2

0 | 471

4

25.07.2020 22:23

Зарубежное кино [HDDVDRip / BDRip / WEB-DL / HDTV 1080/720р] Морские паразиты / Sea Fever (Ниса Хардиман / Neasa Hardiman) [2019 г., ужасы, фантастика, BDRip 1080p] Dub (iTunes) + AVO (Визгунов) + Original (Eng) + Sub (Rus, Eng) 90ytr90
129 | 4

0 | 249

10

20.08.2020 08:22



Последний раз редактировалось: makkol (12.04.2020 11:22), всего редактировалось 1 раз

makkol Пол:Муж

12-Апр-2020 11:15

Замена на файл без рекламы

Яндекс.Метрика powered by Sphinx


В Н И М А Н И Е
Сайт не распространяет и не хранит электронные версии произведений, а лишь бесплатно и без коммерческой выгоды (не требуя взамен платы,
SMS и т.д.) предоставляет доступ к создаваемому пользователями каталогу ссылок на торрент-файлы, которые содержат только списки хеш-сумм.
Убедительная просьба с жалобами обращаться напрямую к пользователю, разместившему торрент файл.

Вверх