Loading...
Error

Морские паразиты / Sea Fever (Ниса Хардиман) [2019 г., ужасы, фантастика, WEB-DLRip] DVO (LakeFilms) + Original

Статистика раздачи
Размер:  1,46 GB   |    Зарегистрирован:  5 месяцев 6 дней   |    Скачан:  35 раз
Сидов:  1  |  0 KB/s  ]   Личеров:  0  |  0 KB/s  ]

* - сиды/пиры с внешних источников

   
 
Автор Сообщение

makkol Пол:Муж

10-Апр-2020 21:05

Морские паразиты / Sea Fever
«Нечто из глубин»


Год выпуска: 2019
Жанр: ужасы, фантастика
Производство: Ирландия , США , Великобритания , Швеция , Бельгия [Bright Moving Pictures, Creativity Capital, Fantastic Films]
Режиссер: Ниса Хардиман
В ролях: Конни Нильсен, Гермиона Корфилд, Дугрей Скотт, Олуэн Фуэре, Джек Хикки, Ардалан Эсмаили, Эли Буаказе
Сюжет фильма:
Изучающая биологию и природные аномалии студентка Шивон отправляется проходить практику на рыболовецкое судно. Поездка обещает принести новые впечатления и богатый материал для научных исследований. Однако корабль под управлением капитана и его жены оказывается в «запретной зоне». Команде предстоит столкнуться с неизведанным и опасным морским чудовищем... Судьба всех находящихся на борту внезапно оказывается в руках студентки. Сумеет ли Шивон что-то предпринять, прежде чем экипаж в полном составе отправится на тот свет?

  • Мировая премьера: 5 сентября 2019
  • Российская премьера: 30 апреля 2020


Качество видео: WEB-DLRip

Продолжительность: 01:34:42
Формат: AVI
Видео: XviD, 704x288 (2.44:1), 23.976 fps, 1810 kbps
Аудио #1: русский, любительский двухголосый закадровый (LakeFilms), AC3 2.0, 48 kHz, 192 kbps - присутствует ненормативная лексика!
Аудио #2: английский, оригинал, AC3 2.0, 48 kHz, 192 kbps
Субтитры: английские (full, SDH) внешние

Код:

Формат                                   : AVI
Формат/Информация                        : Audio Video Interleave
Размер файла                             : 1,46 Гбайт
Продолжительность                        : 1 ч. 34 м.
Общий поток                              : 2 209 Кбит/сек
Название фильма                          : Морские паразиты_2019_WEB-DLRip
Программа кодирования                    : VirtualDubMod 1.5.10.3 | www.virtualdub-fr.org || (build 2550/release)
Авторское право                          : порошков

Видео
Идентификатор                            : 0
Формат                                   : MPEG-4 Visual
Профиль формата                          : Advanced Simple@L5
Настройки формата                        : BVOP1 / Custom Matrix
Параметр BVOP формата                    : 1
Параметр QPel формата                    : Нет
Параметр GMC формата                     : Без точки перехода
Параметр матрицы формата                 : Выборочная
Идентификатор кодека                     : XVID
Идентификатор кодека/Подсказка           : XviD
Продолжительность                        : 1 ч. 34 м.
Битрейт                                  : 1 811 Кбит/сек
Ширина                                   : 704 пикселя
Высота                                   : 288 пикселей
Соотношение сторон                       : 2,40:1
Частота кадров                           : 23,976 (24000/1001) кадра/сек
Цветовое пространство                    : YUV
Субдискретизация насыщенности            : 4:2:0
Битовая глубина                          : 8 бит
Тип развёртки                            : Прогрессивная
Метод сжатия                             : С потерями
Бит/(Пиксели*Кадры)                      : 0.373
Размер потока                            : 1,20 Гбайт (82%)
Библиотека кодирования                   : XviD 73

Аудио #1
Идентификатор                            : 1
Формат                                   : AC-3
Формат/Информация                        : Audio Coding 3
Коммерческое название                    : Dolby Digital
Идентификатор кодека                     : 2000
Продолжительность                        : 1 ч. 34 м.
Вид битрейта                             : Постоянный
Битрейт                                  : 192 Кбит/сек
Каналы                                   : 2 канала
Channel layout                           : L R
Частота                                  : 48,0 КГц
Частота кадров                           : 31,250 кадров/сек (1536 SPF)
Метод сжатия                             : С потерями
Размер потока                            : 130 Мбайт (9%)
Выравнивание                             : Разделение по промежуткам
Продолжительность промежутка             : 42  мс. (1,00 видеокадр)
Время предзагрузки промежутка            : 500  мс.
Заголовок                                : rus
Service kind                             : Complete Main

Аудио #2
Идентификатор                            : 2
Формат                                   : AC-3
Формат/Информация                        : Audio Coding 3
Коммерческое название                    : Dolby Digital
Идентификатор кодека                     : 2000
Продолжительность                        : 1 ч. 34 м.
Вид битрейта                             : Постоянный
Битрейт                                  : 192 Кбит/сек
Каналы                                   : 2 канала
Channel layout                           : L R
Частота                                  : 48,0 КГц
Частота кадров                           : 31,250 кадров/сек (1536 SPF)
Метод сжатия                             : С потерями
Размер потока                            : 130 Мбайт (9%)
Выравнивание                             : Разделение по промежуткам
Продолжительность промежутка             : 42  мс. (1,00 видеокадр)
Время предзагрузки промежутка            : 500  мс.
Заголовок                                : eng
Service kind                             : Complete Main

Этот торрент недоступен для скачивания без регистрации, однако доступен по публичной magnet-ссылке (источники с публичных трекеров). Перед использованием ссылки прочтите, пожалуйста Пользовательское соглашение, а также как можно дольше оставайтесь на раздаче! Для того, чтобы скачать сам торрент-файл (который видит больше источников), а также для того, чтобы поблагодарить релизера, вам необходимо зарегистрироваться. Если регистрироваться лень - вы можете также попробовать скачать релиз по нашим партнерским ссылкам ниже. Кроме того, зарегистрированным пользователям не показывается всплывающая реклама при скачивании.

[underver.se].t164838.torrent
Трекер: Зарегистрирован   [ 12.04.2020 11:21 ]  

Статус: проверено (by makkol at 12.04.2020 11:22)
Поблагодарили: пока никто не поблагодарил...
Тип торрента: публичный - доступные источники с открытых трекеров: 
Размер: 1,46 GB (занимает 0,33 DVDR, для записи нужно 1 болванка DVDR/RW)
 
 
Похожие темы
Форум Тема Автор Торрент Отв. Посл. сооб.
Зарубежное кино [DVDRip, Low-Res HDRip, и т.д.] Морские паразиты / Sea Fever (Ниса Хардиман) [2019 г., ужасы, фантастика, HDRip] VO (zamez) makkol
25 | 0

0 | 748

11

21.05.2020 10:47

Зарубежное кино [DVDRip, Low-Res HDRip, и т.д.] Морские паразиты / Sea Fever (Ниса Хардиман / Neasa Hardiman) [2019 г., ужасы, фантастика, BDRip] AVO (Визгунов) 90ytr90
33 | 1

0 | 482

2

22.06.2020 10:30

Зарубежное кино [DVDRip, Low-Res HDRip, и т.д.] Морские паразиты / Sea Fever (Ниса Хардиман / Neasa Hardiman) [2019 г., ужасы, фантастика, BDRip-AVC] AVO (Визгунов) + Original (Eng) + Sub (Eng) 90ytr90
22 | 4

0 | 492

9

23.06.2020 10:22

Зарубежное кино [DVDRip, Low-Res HDRip, и т.д.] Морские паразиты / Sea Fever (Ниса Хардиман / Neasa Hardiman) [2019 г., ужасы, фантастика, BDRip] Dub (iTunes) 90ytr90
828 | 18

0 | 284

18

20.08.2020 08:22

Зарубежное кино [DVDRip, Low-Res HDRip, и т.д.] Морские паразиты / Sea Fever (Ниса Хардиман / Neasa Hardiman) [2019 г., ужасы, фантастика, BDRip-AVC] Dub (iTunes) + Original (Eng) + Sub (Rus, Eng) 90ytr90
123 | 6

0 | 258

6

20.08.2020 08:28

T Зарубежное кино [HDDVDRip / BDRip / WEB-DL / HDTV 1080/720р] Морские паразиты / Sea Fever (Ниса Хардиман) [2019 г., ужасы, фантастика, WEB-DL 720p] DVO (@MUZOBOZ@) makkol
18 | 0

0 | 979

11

10.04.2020 21:09

Зарубежное кино [HDDVDRip / BDRip / WEB-DL / HDTV 1080/720р] Морские паразиты / Sea Fever (Ниса Хардиман) [2019 г., ужасы, фантастика, WEB-DL 1080p] DVO (LakeFilms) + Original makkol
55 | 1

1 | 1611

32

12.04.2020 11:15

Зарубежное кино [HDDVDRip / BDRip / WEB-DL / HDTV 1080/720р] Морские паразиты / Sea Fever (Ниса Хардиман) [2019 г., ужасы, фантастика, BDRip 1080p] VO (zamez) makkol
7 | 1

0 | 729

13

21.05.2020 10:52

Зарубежное кино [HDDVDRip / BDRip / WEB-DL / HDTV 1080/720р] Морские паразиты / Sea Fever (Ниса Хардиман / Neasa Hardiman) [2019 г., ужасы, фантастика, BDRip 720p] AVO (Визгунов) + Original (Eng) + Sub (Eng) 90ytr90
10 | 2

0 | 472

4

25.07.2020 22:23

Зарубежное кино [HDDVDRip / BDRip / WEB-DL / HDTV 1080/720р] Морские паразиты / Sea Fever (Ниса Хардиман / Neasa Hardiman) [2019 г., ужасы, фантастика, BDRip 1080p] Dub (iTunes) + AVO (Визгунов) + Original (Eng) + Sub (Rus, Eng) 90ytr90
129 | 4

0 | 249

10

20.08.2020 08:22

makkol Пол:Муж

12-Апр-2020 11:23

Замена на файл без рекламы.

Яндекс.Метрика powered by Sphinx


В Н И М А Н И Е
Сайт не распространяет и не хранит электронные версии произведений, а лишь бесплатно и без коммерческой выгоды (не требуя взамен платы,
SMS и т.д.) предоставляет доступ к создаваемому пользователями каталогу ссылок на торрент-файлы, которые содержат только списки хеш-сумм.
Убедительная просьба с жалобами обращаться напрямую к пользователю, разместившему торрент файл.

Вверх