Loading...
Error

Георг Третий. Гений безумного короля / George III: The Genius of the Mad King (Джон Бридкут) [2017, документальный, история, DVB-AVC] DVO

Статистика раздачи
Размер:  541 MB   |    Зарегистрирован:  3 месяца 27 дней   |    Скачан:  5 раз

Полного источника не было: 28 дней

Сидов:  0  |  0 KB/s  ]   Личеров:  0  |  0 KB/s  ]

* - сиды/пиры с внешних источников

   
 
Автор Сообщение

ARI71 Пол:Муж

13-Мар-2020 19:11

Георг Третий. Гений безумного короля / George III: The Genius of the Mad King


Год выпуска: 2017
Страна: Великобритания, Crux Productions
Жанр: документальный, история
Продолжительность: 00:59:08
Перевод: русский, профессиональный двухголосый
Режиссер: Джон Бридкут

Описание: Личные письма и документы короля Англии, дольше всех правившего страной, наконец-то предстанут перед зрителем после того, как они были засекречены на 200 лет. Георга III в основном помнят за его безумие, но эти исторические сокровища помогли по-новому взглянуть на человека, который оставил свой след в важнейших событиях британской истории.

качество: DVB-AVC

формат: TS
Видео: 720x576@1047x576 (16:9) AVC (H.264) High@L3, ~ 1054 kbps, 25 fps
Аудио: 48 kHz, MPEG Layer 2, 2 ch, ~160.00 kbps avg
 
Complete name : Георг III.ts
Format : MPEG-TS
File size : 541 MiB
Duration : 59 min 8 s
Overall bit rate mode : Variable
Overall bit rate : 1 279 kb/s

Video
ID : 209 (0xD1)
Menu ID : 109 (0x6D)
Format : AVC
Format/Info : Advanced Video Codec
Format profile : High@L3
Format settings : CABAC / 4 Ref Frames
Format settings, CABAC : Yes
Format settings, Reference : 4 frames
Format settings, GOP : M=4, N=28
Codec ID : 27
Duration : 59 min 8 s
Bit rate : 1 054 kb/s
Width : 720 pixels
Height : 576 pixels
Display aspect ratio : 16:9
Frame rate : 25.000 FPS
Standard : Component
Color space : YUV
Chroma subsampling : 4:2:0
Bit depth : 8 bits
Scan type : Interlaced
Scan type, store method : Separated fields
Scan order : Top Field First
Bits/(Pixel*Frame) : 0.102
Stream size : 446 MiB (82%)
Color range : Limited
Color primaries : BT.601 PAL
Transfer characteristics : BT.470 System B/G
Matrix coefficients : BT.470 System B/G

Audio
ID : 309 (0x135)
Menu ID : 109 (0x6D)
Format : MPEG Audio
Format version : Version 1
Format profile : Layer 2
Codec ID : 3
Duration : 59 min 8 s
Bit rate mode : Constant
Bit rate : 160 kb/s
Channel(s) : 2 channels
Sampling rate : 48.0 kHz
Frame rate : 41.667 FPS (1152 SPF)
Compression mode : Lossy
Stream size : 67.7 MiB (13%)
Language : Russian

Этот торрент недоступен для скачивания без регистрации, однако доступен по публичной magnet-ссылке (источники с публичных трекеров). Перед использованием ссылки прочтите, пожалуйста Пользовательское соглашение, а также как можно дольше оставайтесь на раздаче! Для того, чтобы скачать сам торрент-файл (который видит больше источников), а также для того, чтобы поблагодарить релизера, вам необходимо зарегистрироваться. Если регистрироваться лень - вы можете также попробовать скачать релиз по нашим партнерским ссылкам ниже. Кроме того, зарегистрированным пользователям не показывается всплывающая реклама при скачивании.

[underver.se].t162431.torrent
Трекер: Зарегистрирован   [ 13.03.2020 19:11 ]  

Статус: проверено (by ARI71 at 13.03.2020 19:11)
Поблагодарили: 1 человек
Тип торрента: публичный - доступные источники с открытых трекеров: 
Размер: 541 MB (занимает 0,12 DVDR, для записи нужно 1 болванка DVDR/RW)
 
 

Яндекс.Метрика powered by Sphinx


В Н И М А Н И Е
Сайт не распространяет и не хранит электронные версии произведений, а лишь бесплатно и без коммерческой выгоды (не требуя взамен платы,
SMS и т.д.) предоставляет доступ к создаваемому пользователями каталогу ссылок на торрент-файлы, которые содержат только списки хеш-сумм.
Убедительная просьба с жалобами обращаться напрямую к пользователю, разместившему торрент файл.

Вверх