Loading...
Error

Zомбилэнд: Контрольный выстрел / Zombieland: Double Tap (Рубен Фляйшер / Ruben Fleischer) [2019 г., ужасы, боевик, комедия, UHD BDRemux] Dub (iTunes) + Original (Eng) + Sub (Rus, Eng)

Статистика раздачи
Размер:  41,41 GB   |    Зарегистрирован:  1 месяц 11 дней   |    Скачан:  6 раз
Сидов:  1  |  102 KB/s  ]   Личеров:  0  |  0 KB/s  ]

* - сиды/пиры с внешних источников

   
 
Автор Сообщение

eXtatik Пол:Муж

12-Янв-2020 07:43

Zомбилэнд: Контрольный выстрел / Zombieland: Double Tap (2019) UHD BDRemux [H.265/2160p] [4K, HDR, 10-bit]

Производство: США / Columbia Pictures, Pariah
Жанр: Ужасы, боевик, комедия

Режиссер: Рубен Фляйшер
Актеры: Джесси Айзенберг, Вуди Харрельсон, Эмма Стоун, Эбигейл Бреслин, Зои Дойч, Розарио Доусон, Эван Джогиа, Билл Мюррей, Дэн Эйкройд, Люк Уилсон

Описание:
Беспощадная и бесстрашная четверка охотников на зомби продолжает свое путешествие в глубь страны. На этот раз им предстоит сразиться не только с новыми видами живых мертвецов, но и вступить в схватку с другими выжившими, которые настроены совсем не дружелюбно. Кроме того, в собственных рядах охотников намечается серьезный разлад.

   

Возраст: 18+ (зрителям, достигшим 18 лет. запрещено для детей)
Рейтинг MPAA: R (лицам до 17 лет обязательно присутствие взрослого)
Дата мировой премьеры: 9 октября 2019
Дата премьеры в России: 24 октября 2019


Продолжительность: 01:39:02
Качество видео: UHD BDRemux
Перевод: Дублированный (iTunes)
Субтитры: Русские (Forced, Full), английские (Forced, Full)

Видео: HEVC/H.265, 3840x2160, ~54.2 mbps
Аудио 1: AC3, 6 ch, 384 Kbps, Русский (iTunes)
Аудио 2: DTS-HD MA, 8 ch, 5292 Kbps, Английский

Исходный диск на Blu-ray.com
 
Общее
Уникальный идентификатор : 198932332414027106798062228983135457885 (0x95A8F93D36B576FF96E88F02557DD25D)
Полное имя : D:\FILMS\ZALIV\Zombieland_Double.Tap.2019.2160p.HDR.BDRemux.mkv
Формат : Matroska
Версия формата : Version 4
Размер файла : 41,4 Гбайт
Продолжительность : 1 ч. 39 м.
Режим общего битрейта : Переменный
Общий поток : 59,9 Мбит/сек
Дата кодирования : UTC 2020-01-12 04:21:35
Программа кодирования : mkvmerge v8.2.0 ('World of Adventure') 64bit
Библиотека кодирования : libebml v1.3.1 + libmatroska v1.4.2
Обложка : Yes
Attachments : cover.png

Видео
Идентификатор : 1
Формат : HEVC
Формат/Информация : High Efficiency Video Coding
Профиль формата : Main 10@L5.1@High
HDR_Format/String : SMPTE ST 2086, HDR10 compatible
Идентификатор кодека : V_MPEGH/ISO/HEVC
Продолжительность : 1 ч. 39 м.
Битрейт : 54,2 Мбит/сек
Ширина : 3840 пикселей
Высота : 2160 пикселей
Соотношение сторон : 16:9
Режим частоты кадров : Постоянный
Частота кадров : 23,976 (24000/1001) кадра/сек
Цветовое пространство : YUV
Субдискретизация насыщенности : 4:2:0 (Type 2)
Битовая глубина : 10 бит
Бит/(Пиксели*Кадры) : 0.272
Размер потока : 37,5 Гбайт (91%)
Заголовок : BDRemux.2160p.HDR by Silverok
Default : Да
Forced : Нет
Цветовой диапазон : Limited
Основные цвета : BT.2020
Характеристики трансфера : PQ
Коэффициенты матрицы : BT.2020 non-constant
MasteringDisplay_ColorPrimaries : Display P3
MasteringDisplay_Luminance : min: 0.0050 cd/m2, max: 4000 cd/m2
MaxCLL : 1001 cd/m2
MaxFALL : 387 cd/m2

Аудио #1
Идентификатор : 2
Формат : AC-3
Формат/Информация : Audio Coding 3
Коммерческое название : Dolby Digital
Идентификатор кодека : A_AC3
Продолжительность : 1 ч. 39 м.
Вид битрейта : Постоянный
Битрейт : 384 Кбит/сек
Каналы : 6 каналов
ChannelLayout : L R C LFE Ls Rs
Частота : 48,0 КГц
Частота кадров : 31,250 кадров/сек (1536 SPF)
Метод сжатия : С потерями
Размер потока : 272 Мбайт (1%)
Заголовок : Дубляж, iTunes
Язык : Russian
ServiceKind/String : Complete Main
Default : Да
Forced : Нет

Аудио #2
Идентификатор : 3
Формат : DTS XLL
Формат/Информация : Digital Theater Systems
Коммерческое название : DTS-HD Master Audio
Идентификатор кодека : A_DTS
Продолжительность : 1 ч. 39 м.
Вид битрейта : Переменный
Битрейт : 5292 Кбит/сек
Каналы : 8 каналов
ChannelLayout : C L R LFE Lb Rb Lss Rss
Частота : 48,0 КГц
Частота кадров : 93,750 кадра/сек (512 SPF)
Битовая глубина : 24 бит
Метод сжатия : Без потерь
Размер потока : 3,66 Гбайт (9%)
Язык : English
Default : Нет
Forced : Нет

Текст #1
Идентификатор : 4
Формат : UTF-8
Идентификатор кодека : S_TEXT/UTF8
Идентификатор кодека/Информация : UTF-8 Plain Text
Продолжительность : 1 ч. 37 м.
Битрейт : 1 бит/сек
ElementCount : 35
Размер потока : 1,42 Кбайт (0%)
Заголовок : Forced
Язык : Russian
Default : Да
Forced : Нет

Текст #2
Идентификатор : 5
Формат : UTF-8
Идентификатор кодека : S_TEXT/UTF8
Идентификатор кодека/Информация : UTF-8 Plain Text
Продолжительность : 1 ч. 38 м.
Битрейт : 106 бит/сек
ElementCount : 1736
Размер потока : 76,7 Кбайт (0%)
Заголовок : Full
Язык : Russian
Default : Нет
Forced : Нет

Текст #3
Идентификатор : 6
Формат : UTF-8
Идентификатор кодека : S_TEXT/UTF8
Идентификатор кодека/Информация : UTF-8 Plain Text
Продолжительность : 1 ч. 38 м.
Битрейт : 138 бит/сек
ElementCount : 1809
Размер потока : 100 Кбайт (0%)
Заголовок : Full
Язык : Russian
Default : Нет
Forced : Нет

Текст #4
Идентификатор : 7
Формат : UTF-8
Идентификатор кодека : S_TEXT/UTF8
Идентификатор кодека/Информация : UTF-8 Plain Text
Продолжительность : 28 м. 6 с.
Битрейт : 0 бит/сек
ElementCount : 7
Размер потока : 157 байт (0%)
Заголовок : Forced
Язык : English
Default : Нет
Forced : Нет

Текст #5
Идентификатор : 8
Формат : UTF-8
Идентификатор кодека : S_TEXT/UTF8
Идентификатор кодека/Информация : UTF-8 Plain Text
Продолжительность : 1 ч. 38 м.
Битрейт : 83 бит/сек
ElementCount : 1812
Размер потока : 60,4 Кбайт (0%)
Заголовок : Full
Язык : English
Default : Нет
Forced : Нет

Текст #6
Идентификатор : 9
Формат : UTF-8
Идентификатор кодека : S_TEXT/UTF8
Идентификатор кодека/Информация : UTF-8 Plain Text
Продолжительность : 1 ч. 38 м.
Битрейт : 91 бит/сек
ElementCount : 2064
Размер потока : 65,7 Кбайт (0%)
Заголовок : SDH
Язык : English
Default : Нет
Forced : Нет

Меню
00:00:00.000 : en:Глава 01
00:05:00.675 : en:Глава 02
00:11:08.001 : en:Глава 03
00:15:24.507 : en:Глава 04
00:21:16.192 : en:Глава 05
00:29:15.545 : en:Глава 06
00:36:55.422 : en:Глава 07
00:44:03.015 : en:Глава 08
00:50:12.968 : en:Глава 09
00:57:52.511 : en:Глава 10
01:03:51.870 : en:Глава 11
01:06:50.048 : en:Глава 12
01:10:12.125 : en:Глава 13
01:15:40.119 : en:Глава 14
01:23:45.312 : en:Глава 15
01:29:48.216 : en:Глава 16

Скриншоты:
pic pic pic pic

Этот торрент недоступен для скачивания без регистрации, однако доступен по публичной magnet-ссылке (источники с публичных трекеров). Перед использованием ссылки прочтите, пожалуйста Пользовательское соглашение, а также как можно дольше оставайтесь на раздаче! Для того, чтобы скачать сам торрент-файл (который видит больше источников), а также для того, чтобы поблагодарить релизера, вам необходимо зарегистрироваться. Если регистрироваться лень - вы можете также попробовать скачать релиз по нашим партнерским ссылкам ниже. Кроме того, зарегистрированным пользователям не показывается всплывающая реклама при скачивании.

[underver.se].t156910.torrent
Трекер: Зарегистрирован   [ 12.01.2020 07:43 ]  

Статус: проверено (by Inspektor_49 at 12.01.2020 10:13)
Поблагодарили: пока никто не поблагодарил...
Тип торрента: публичный - доступные источники с открытых трекеров: 
Размер: 41,41 GB (занимает 9,46 DVDR, для записи нужно 10 болванок DVDR/RW)
 
 
Похожие темы
Форум Тема Автор Торрент Отв. Посл. сооб.
T Зарубежное кино [DVDRip, Low-Res HDRip, и т.д.] Zомбилэнд: Контрольный выстрел / Zombieland: Double Tap (Рубен Фляйшер) [2019 г., ужасы, боевик, комедия, WEBRip] Subs + Original (Eng) + hardsub (Kor) 90ytr90
15 | 1

0 | 265

20

17.12.2019 19:42

T Зарубежное кино [DVDRip, Low-Res HDRip, и т.д.] Zомбилэнд: Контрольный выстрел / Zombieland: Double Tap (Рубен Фляйшер) [2019 г., ужасы, комедия, боевик, HDRip] Dub (звук с онлайн-кинотеатра) + Original (Eng) + Sub 90ytr90
155 | 7

0 | 176

19

24.12.2019 13:42

Зарубежное кино [DVDRip, Low-Res HDRip, и т.д.] Zомбилэнд: Контрольный выстрел / Zombieland: Double Tap (Рубен Фляйшер / Ruben Fleischer) [2019 г., ужасы, боевик, комедия, HDRip] Dub (iTunes) + Sub (Rus) 90ytr90
1969 | 54

0 | 330

33

26.12.2019 20:27

Зарубежное кино [DVDRip, Low-Res HDRip, и т.д.] Zомбилэнд: Контрольный выстрел / Zombieland: Double Tap (Рубен Фляйшер / Ruben Fleischer) [2019 г., ужасы, боевик, комедия, BDRip-AVC] Dub (iTunes) + Original (Eng) + Sub (Rus, Eng) 90ytr90
622 | 20

0 | 501

19

28.12.2019 11:08

Зарубежное кино [DVDRip, Low-Res HDRip, и т.д.] Zомбилэнд: Контрольный выстрел / Zombieland: Double Tap (Рубен Фляйшер / Ruben Fleischer) [2019 г., ужасы, боевик, комедия, BDRip] Dub (iTunes) + hardsub (Rus) 90ytr90
160 | 7

0 | 363

9

29.12.2019 17:59

Зарубежное кино [DVD / HDDVD / BD / Remux] Zомбилэнд: Контрольный выстрел / Zombieland: Double Tap (Рубен Фляйшер / Ruben Fleischer) [2019 г., ужасы, боевик, комедия, BDRemux 1080p] Dub (Rus iTunes) + Dub (Ukr iTunes) + Original (Eng) + Sub... 90ytr90
160 | 11

0 | 325

17

27.12.2019 02:14

T Зарубежное кино [HDDVDRip / BDRip / WEB-DL / HDTV 1080/720р] Zомбилэнд: Контрольный выстрел / Zombieland: Double Tap (Рубен Фляйшер / Ruben Fleischer) [2019 г., ужасы, боевик, комедия, WEBRip 1080p] Dub (звук с онлайн-кинотеатра) + Original (Eng) + hardsub... 90ytr90
998 | 24

0 | 479

36

18.12.2019 19:42

T Зарубежное кино [HDDVDRip / BDRip / WEB-DL / HDTV 1080/720р] Zомбилэнд: Контрольный выстрел / Zombieland: Double Tap (Рубен Фляйшер / Ruben Fleischer) [2019 г., ужасы, боевик, комедия, BDRip 1080p] Dub (звук с онлайн-кинотеатра) + Original (Eng) + Sub (Eng) 90ytr90
279 | 2

0 | 324

8

23.12.2019 20:23

Зарубежное кино [HDDVDRip / BDRip / WEB-DL / HDTV 1080/720р] Zомбилэнд: Контрольный выстрел / Zombieland: Double Tap (Рубен Фляйшер / Ruben Fleischer) [2019 г., ужасы, боевик, комедия, BDRip 720p] Dub (звук с онлайн-кинотеатра) + Original (Eng) + Sub (Eng) 90ytr90
54 | 1

0 | 162

9

23.12.2019 21:01

Зарубежное кино [HDDVDRip / BDRip / WEB-DL / HDTV 1080/720р] Zомбилэнд: Контрольный выстрел / Zombieland: Double Tap (Рубен Фляйшер / Ruben Fleischer) [2019 г., ужасы, боевик, комедия, BDRip 1080p] Dub (Rus iTunes) + Dub (Ukr iTunes) + Original (Eng) + Sub... 90ytr90
788 | 33

0 | 289

33

26.12.2019 20:02


Яндекс.Метрика powered by Sphinx


В Н И М А Н И Е
Сайт не распространяет и не хранит электронные версии произведений, а лишь бесплатно и без коммерческой выгоды (не требуя взамен платы,
SMS и т.д.) предоставляет доступ к создаваемому пользователями каталогу ссылок на торрент-файлы, которые содержат только списки хеш-сумм.
Убедительная просьба с жалобами обращаться напрямую к пользователю, разместившему торрент файл.

Вверх