Loading...
Error

Zомбилэнд: Контрольный выстрел / Zombieland: Double Tap (Рубен Фляйшер) [2019 г., ужасы, комедия, боевик, HDRip] Dub (звук с онлайн-кинотеатра) + Original (Eng) + Sub

Статистика раздачи
Размер:  1,46 GB   |    Зарегистрирован:  1 месяц 29 дней   |    Скачан:  19 раз

Полного источника не было: 1 час 33 минуты

Сидов:  0  |  0 KB/s  ]   Личеров:  0  |  0 KB/s  ]

* - сиды/пиры с внешних источников

   
 
Автор Сообщение

90ytr90 

24-Дек-2019 13:42

Zомбилэнд: Контрольный выстрел / Zombieland: Double Tap


Zомбилэнд: Контрольный выстрел / Zombieland: Double Tap

Страна: США Канада
Производство: Columbia Pictures Corporation, Pariah
Год выхода: 2019
Жанр: ужасы, комедия, боевик
Продолжительность: 01:39:01

Режиссер-постановщик: Рубен Фляйшер
В фильме снимались: Джесси Айзенберг, Вуди Харрельсон, Эмма Стоун, Эбигейл Бреслин, Зои Дойч, Эван Джогиа, Розарио Доусон, Люк Уилсон, Томас Миддлдитч

Описание: Беспощадная и бесстрашная четвёрка охотников на зомби продолжает своё путешествие в глубь страны. На этот раз им предстоит сразиться не только с новыми видами живых мертвецов, но и познакомиться с другими выжившими. Кроме того, в собственных рядах наших героев намечается серьёзный разлад...



Перевод: Профессиональный (полное дублирование) | звук с онлайн-кинотеатра
Субтитры: отдельными файлами / русские (full), английские (full)
Качество: HDRip
Формат: AVI
Видео кодек: XviD
Аудио кодек: АС3
Видео: 720x304 (2.35:1), 23.976 fps, XviD build 67 ~1712 kbps avg, 0.326 bit/pixel
Аудио №1: 48.0 kHz, AC3 Dolby Digital, 2/0 (L,R) ch, ~192 kbps | RUS
Аудио №2: 48.0 kHz, AC3 Dolby Digital, 2/0 (L,R) ch, ~192 kbps | ENG
Формат субтитров: *SRT

Дата премьеры (мир): 9 октября 2019
Дата премьеры (РФ): 24 октября 2019, «WDSSPR»



Релиз от: Dalemake
General
Полное имя : Zombieland_2_2019_HDRip_by_Dalemake.avi
Формат : AVI
Формат/Информация : Audio Video Interleave
Размер файла : 1,46 Гбайт
Продолжительность : 1 ч. 39 м.
Общий поток : 2111 Кбит/сек
Программа кодирования : VirtualDubMod 1.5.10.3 | www.virtualdub-fr.org || (build 2550/release)
Библиотека кодирования : VirtualDubMod build 2550/release

Видео
Идентификатор : 0
Формат : MPEG-4 Visual
Профиль формата : Advanced Simple@L5
Настройки формата : BVOP1 / Custom Matrix
Параметр BVOP формата : 1
Параметр QPel формата : Нет
Параметр GMC формата : Без точки перехода
Параметр матрицы формата : Выборочная
Идентификатор кодека : XVID
Идентификатор кодека/Подсказка : XviD
Продолжительность : 1 ч. 39 м.
Битрейт : 1712 Кбит/сек
Ширина : 720 пикселей
Высота : 304 пикселя
Соотношение сторон : 2,35:1
Частота кадров : 23,976 (24000/1001) кадра/сек
Частота кадров в оригинале : 23,976 (23976/1000) кадра/сек
Цветовое пространство : YUV
Субдискретизация насыщенности : 4:2:0
Битовая глубина : 8 бит
Тип развёртки : Прогрессивная
Метод сжатия : С потерями
Бит/(Пиксели*Кадры) : 0.326
Размер потока : 1,18 Гбайт (81%)
Библиотека кодирования : XviD 67

Аудио #1
Идентификатор : 1
Формат : AC-3
Формат/Информация : Audio Coding 3
Коммерческое название : Dolby Digital
Идентификатор кодека : 2000
Продолжительность : 1 ч. 39 м.
Вид битрейта : Постоянный
Битрейт : 192 Кбит/сек
Каналы : 2 канала
ChannelLayout : L R
Частота : 48,0 КГц
Частота кадров : 31,250 кадров/сек (1536 SPF)
Битовая глубина : 16 бит
Метод сжатия : С потерями
Размер потока : 136 Мбайт (9%)
Выравнивание : Разделение по промежуткам
Продолжительность промежутка : 42 мс. (1,00 видеокадр)
Время предзагрузки промежутка : 500 мс.

Аудио #2
Идентификатор : 2
Формат : AC-3
Формат/Информация : Audio Coding 3
Коммерческое название : Dolby Digital
Идентификатор кодека : 2000
Продолжительность : 1 ч. 39 м.
Вид битрейта : Постоянный
Битрейт : 192 Кбит/сек
Каналы : 2 канала
ChannelLayout : L R
Частота : 48,0 КГц
Частота кадров : 31,250 кадров/сек (1536 SPF)
Битовая глубина : 16 бит
Метод сжатия : С потерями
Размер потока : 136 Мбайт (9%)
Выравнивание : Разделение по промежуткам
Продолжительность промежутка : 42 мс. (1,00 видеокадр)
Время предзагрузки промежутка : 500 мс.

Этот торрент недоступен для скачивания без регистрации, однако доступен по публичной magnet-ссылке (источники с публичных трекеров). Перед использованием ссылки прочтите, пожалуйста Пользовательское соглашение, а также как можно дольше оставайтесь на раздаче! Для того, чтобы скачать сам торрент-файл (который видит больше источников), а также для того, чтобы поблагодарить релизера, вам необходимо зарегистрироваться. Если регистрироваться лень - вы можете также попробовать скачать релиз по нашим партнерским ссылкам ниже. Кроме того, зарегистрированным пользователям не показывается всплывающая реклама при скачивании.

[underver.se].t155382.torrent
Трекер: Зарегистрирован   [ 24.12.2019 13:42 ]  

Статус: T временная (by eXtatik at 04.01.2020 19:05)
Поблагодарили: пока никто не поблагодарил...
Тип торрента: публичный - доступные источники с открытых трекеров: 
Размер: 1,46 GB (занимает 0,33 DVDR, для записи нужно 1 болванка DVDR/RW)
 
 
Похожие темы
Форум Тема Автор Торрент Отв. Посл. сооб.
T Зарубежное кино [DVDRip, Low-Res HDRip, и т.д.] Zомбилэнд: Контрольный выстрел / Zombieland: Double Tap (Рубен Фляйшер) [2019 г., ужасы, боевик, комедия, WEBRip] Subs + Original (Eng) + hardsub (Kor) 90ytr90
15 | 1

0 | 265

20

17.12.2019 19:42

Зарубежное кино [DVDRip, Low-Res HDRip, и т.д.] Zомбилэнд: Контрольный выстрел / Zombieland: Double Tap (Рубен Фляйшер / Ruben Fleischer) [2019 г., ужасы, боевик, комедия, HDRip] Dub (iTunes) + Sub (Rus) 90ytr90
1969 | 54

0 | 329

33

26.12.2019 20:27

Зарубежное кино [DVDRip, Low-Res HDRip, и т.д.] Zомбилэнд: Контрольный выстрел / Zombieland: Double Tap (Рубен Фляйшер / Ruben Fleischer) [2019 г., ужасы, боевик, комедия, BDRip-AVC] Dub (iTunes) + Original (Eng) + Sub (Rus, Eng) 90ytr90
622 | 20

0 | 501

19

28.12.2019 11:08

Зарубежное кино [DVDRip, Low-Res HDRip, и т.д.] Zомбилэнд: Контрольный выстрел / Zombieland: Double Tap (Рубен Фляйшер / Ruben Fleischer) [2019 г., ужасы, боевик, комедия, BDRip] Dub (iTunes) + hardsub (Rus) 90ytr90
160 | 7

0 | 363

9

29.12.2019 17:59

Зарубежное кино [DVD / HDDVD / BD / Remux] Zомбилэнд: Контрольный выстрел / Zombieland: Double Tap (Рубен Фляйшер / Ruben Fleischer) [2019 г., ужасы, боевик, комедия, BDRemux 1080p] Dub (Rus iTunes) + Dub (Ukr iTunes) + Original (Eng) + Sub... 90ytr90
160 | 11

0 | 325

17

27.12.2019 02:14

Зарубежное кино [DVD / HDDVD / BD / Remux] Zомбилэнд: Контрольный выстрел / Zombieland: Double Tap (Рубен Фляйшер / Ruben Fleischer) [2019 г., ужасы, боевик, комедия, UHD BDRemux] Dub (iTunes) + Original (Eng) + Sub (Rus, Eng) eXtatik
71 | 2

0 | 345

6

12.01.2020 07:43

T Зарубежное кино [HDDVDRip / BDRip / WEB-DL / HDTV 1080/720р] Zомбилэнд: Контрольный выстрел / Zombieland: Double Tap (Рубен Фляйшер / Ruben Fleischer) [2019 г., ужасы, боевик, комедия, WEBRip 1080p] Dub (звук с онлайн-кинотеатра) + Original (Eng) + hardsub... 90ytr90
998 | 24

0 | 479

36

18.12.2019 19:42

T Зарубежное кино [HDDVDRip / BDRip / WEB-DL / HDTV 1080/720р] Zомбилэнд: Контрольный выстрел / Zombieland: Double Tap (Рубен Фляйшер / Ruben Fleischer) [2019 г., ужасы, боевик, комедия, BDRip 1080p] Dub (звук с онлайн-кинотеатра) + Original (Eng) + Sub (Eng) 90ytr90
279 | 2

0 | 324

8

23.12.2019 20:23

Зарубежное кино [HDDVDRip / BDRip / WEB-DL / HDTV 1080/720р] Zомбилэнд: Контрольный выстрел / Zombieland: Double Tap (Рубен Фляйшер / Ruben Fleischer) [2019 г., ужасы, боевик, комедия, BDRip 720p] Dub (звук с онлайн-кинотеатра) + Original (Eng) + Sub (Eng) 90ytr90
54 | 1

0 | 161

9

23.12.2019 21:01

Зарубежное кино [HDDVDRip / BDRip / WEB-DL / HDTV 1080/720р] Zомбилэнд: Контрольный выстрел / Zombieland: Double Tap (Рубен Фляйшер / Ruben Fleischer) [2019 г., ужасы, боевик, комедия, BDRip 1080p] Dub (Rus iTunes) + Dub (Ukr iTunes) + Original (Eng) + Sub... 90ytr90
788 | 33

0 | 289

33

26.12.2019 20:02


Яндекс.Метрика powered by Sphinx


В Н И М А Н И Е
Сайт не распространяет и не хранит электронные версии произведений, а лишь бесплатно и без коммерческой выгоды (не требуя взамен платы,
SMS и т.д.) предоставляет доступ к создаваемому пользователями каталогу ссылок на торрент-файлы, которые содержат только списки хеш-сумм.
Убедительная просьба с жалобами обращаться напрямую к пользователю, разместившему торрент файл.

Вверх