Loading...
Error

Zомбилэнд: Контрольный выстрел / Zombieland: Double Tap (Рубен Фляйшер / Ruben Fleischer) [2019 г., ужасы, боевик, комедия, BDRip 1080p] Dub (звук с онлайн-кинотеатра) + Original (Eng) + Sub (Eng)

Статистика раздачи
Размер:  9,36 GB   |    Зарегистрирован:  1 месяц 30 дней   |    Скачан:  15 раз
Сидов:  2  |  39 KB/s  ]   Личеров:  0  |  0 KB/s  ]

* - сиды/пиры с внешних источников

   
 
Автор Сообщение

90ytr90 

24-Дек-2019 05:01

Zомбилэнд: Контрольный выстрел / Zombieland: Double Tap


Название: Zомбилэнд: Контрольный выстрел
Оригинальное название: Zombieland: Double Tap
Год выпуска: 2019
Жанр: Ужасы, боевик, комедия
Режиссер-постановщик: Рубен Фляйшер
Актеры: Джесси Айзенберг, Вуди Харрельсон, Эмма Стоун, Эбигейл Бреслин, Зои Дойч, Розарио Доусон, Эван Джогиа, Билл Мюррей, Дэн Эйкройд, Люк Уилсон, Томас Миддлдитч, Виктория Холл



Описание: Беспощадная и бесстрашная четверка охотников на зомби продолжает свое путешествие в глубь страны. На этот раз им предстоит сразиться не только с новыми видами живых мертвецов, но и вступить в схватку с другими выжившими, которые настроены совсем не дружелюбно. Кроме того, в собственных рядах охотников намечается серьезный разлад.

Страна: США
Студия: Канада, Columbia Pictures Corporation, Pariah
Продолжительность: 01:39:04
Перевод: Дублированный | Онлайн кинотеатр

Качество: BDRip 1080p
Видео: MPEG-4 AVC, 1920x804, 12.7 Mbit/s, 23.976 fps
Аудио #01: 48 kHz, AC3, 2.0, 192 Kbps | Дублированный | RUS |
Аудио #02: 48 kHz, AC3, 5.1, 640 Kbps | Оригинал | ENG |
Субтитры: Русские (Full), английские

Без рекламы



Сэмпл
General
Unique ID : 323893325669178281089621567770971429559 (0xF3AB95E151A42C42851F6D1839F95AB7)
Complete name : F:Video111Zombieland.Double.Tap.2019.BDRip.1080p.seleZen.mkv
Format : Matroska
Format version : Version 4
File size : 9.36 GiB
Duration : 1 h 39 min
Overall bit rate : 13.5 Mb/s
Movie name : Zombieland Double Tap 2019 from селезень
Encoded date : UTC 2019-12-23 22:50:46
Writing application : mkvmerge v40.0.0 ('Old Town Road + Pony') 64-bit
Writing library : libebml v1.3.9 + libmatroska v1.5.2

Video
ID : 1
Format : AVC
Format/Info : Advanced Video Codec
Format profile : High@L4.1
Format settings : CABAC / 5 Ref Frames
Format settings, CABAC : Yes
Format settings, Reference : 5 frames
Codec ID : V_MPEG4/ISO/AVC
Duration : 1 h 39 min
Bit rate : 12.7 Mb/s
Width : 1 920 pixels
Height : 804 pixels
Display aspect ratio : 2.40:1
Frame rate mode : Constant
Frame rate : 23.976 (24000/1001) FPS
Color space : YUV
Chroma subsampling : 4:2:0
Bit depth : 8 bits
Scan type : Progressive
Bits/(Pixel*Frame) : 0.343
Stream size : 8.78 GiB (94%)
Writing library : x264 core 158 r2984+49 6932f4a t_mod_New [0-bit@all X86_64]
Encoding settings : cabac=1 / ref=5 / deblock=1:-3:-3 / analyse=0x3:0x133 / me=umh / subme=10 / psy=1 / fade_compensate=0.00 / psy_rd=1.00:0.00 / mixed_ref=1 / me_range=32 / chroma_me=1 / trellis=2 / 8x8dct=1 / cqm=0 / deadzone=21,11 / fast_pskip=0 / chroma_qp_offset=-2 / threads=16 / lookahead_threads=4 / sliced_threads=0 / nr=0 / decimate=0 / interlaced=0 / bluray_compat=0 / constrained_intra=0 / fgo=0 / bframes=12 / b_pyramid=2 / b_adapt=2 / b_bias=0 / direct=3 / weightb=1 / open_gop=0 / weightp=2 / keyint=480 / keyint_min=24 / scenecut=40 / intra_refresh=0 / rc_lookahead=80 / rc=crf / mbtree=0 / crf=17.0000 / qcomp=0.60 / qpmin=0:0:0 / qpmax=69:69:69 / qpstep=4 / vbv_maxrate=62500 / vbv_bufsize=78125 / crf_max=0.0 / nal_hrd=none / filler=0 / ip_ratio=1.30 / pb_ratio=1.20 / aq=3:0.80 / aq-sensitivity=10.00 / aq-factor=1.00:1.00:1.00 / aq2=0 / aq3=0
Language : English
Default : Yes
Forced : No
Color range : Limited
Color primaries : BT.709
Transfer characteristics : BT.709
Matrix coefficients : BT.709

Audio #1
ID : 2
Format : AC-3
Format/Info : Audio Coding 3
Commercial name : Dolby Digital
Codec ID : A_AC3
Duration : 1 h 39 min
Bit rate mode : Constant
Bit rate : 192 kb/s
Channel(s) : 2 channels
Channel layout : L R
Sampling rate : 48.0 kHz
Frame rate : 31.250 FPS (1536 SPF)
Bit depth : 16 bits
Compression mode : Lossy
Stream size : 136 MiB (1%)
Title : Dub [Online cin.]
Language : Russian
Service kind : Complete Main
Default : Yes
Forced : Yes

Audio #2
ID : 3
Format : AC-3
Format/Info : Audio Coding 3
Commercial name : Dolby Digital
Codec ID : A_AC3
Duration : 1 h 39 min
Bit rate mode : Constant
Bit rate : 640 kb/s
Channel(s) : 6 channels
Channel layout : L R C LFE Ls Rs
Sampling rate : 48.0 kHz
Frame rate : 31.250 FPS (1536 SPF)
Bit depth : 16 bits
Compression mode : Lossy
Stream size : 453 MiB (5%)
Title : Original
Language : English
Service kind : Complete Main
Default : No
Forced : No

Text #1
ID : 4
Format : UTF-8
Codec ID : S_TEXT/UTF8
Codec ID/Info : UTF-8 Plain Text
Duration : 1 h 38 min
Bit rate : 138 b/s
Count of elements : 1809
Stream size : 100 KiB (0%)
Title : Full
Language : Russian
Default : No
Forced : No

Text #2
ID : 5
Format : UTF-8
Codec ID : S_TEXT/UTF8
Codec ID/Info : UTF-8 Plain Text
Duration : 28 min 6 s
Bit rate : 0 b/s
Count of elements : 7
Stream size : 157 Bytes (0%)
Title : Forced
Language : English
Default : No
Forced : No

Text #3
ID : 6
Format : UTF-8
Codec ID : S_TEXT/UTF8
Codec ID/Info : UTF-8 Plain Text
Duration : 1 h 38 min
Bit rate : 83 b/s
Count of elements : 1805
Stream size : 60.2 KiB (0%)
Title : Full
Language : English
Default : No
Forced : No

Menu
00:00:00.000 : en:Chapter 1
00:05:00.675 : en:Chapter 2
00:11:08.001 : en:Chapter 3
00:15:24.507 : en:Chapter 4
00:21:16.192 : en:Chapter 5
00:29:15.545 : en:Chapter 6
00:36:55.422 : en:Chapter 7
00:44:03.015 : en:Chapter 8
00:50:12.968 : en:Chapter 9
00:57:52.511 : en:Chapter 10
01:03:51.870 : en:Chapter 11
01:06:50.048 : en:Chapter 12
01:10:12.125 : en:Chapter 13
01:15:40.119 : en:Chapter 14
01:23:45.312 : en:Chapter 15
01:29:48.216 : en:Chapter 16
Релиз от:

Этот торрент недоступен для скачивания без регистрации, однако доступен по публичной magnet-ссылке (источники с публичных трекеров). Перед использованием ссылки прочтите, пожалуйста Пользовательское соглашение, а также как можно дольше оставайтесь на раздаче! Для того, чтобы скачать сам торрент-файл (который видит больше источников), а также для того, чтобы поблагодарить релизера, вам необходимо зарегистрироваться. Если регистрироваться лень - вы можете также попробовать скачать релиз по нашим партнерским ссылкам ниже. Кроме того, зарегистрированным пользователям не показывается всплывающая реклама при скачивании.

[underver.se].t155341.torrent
Трекер: Зарегистрирован   [ 24.12.2019 05:01 ]  

Статус: поглощено (by 90ytr90 at 27.12.2019 13:05)
Поблагодарили: пока никто не поблагодарил...
Тип торрента: публичный - доступные источники с открытых трекеров: 
Размер: 9,36 GB (занимает 2,14 DVDR, для записи нужно 3 болванки DVDR/RW)
 
 
Похожие темы
Форум Тема Автор Торрент Отв. Посл. сооб.
T Зарубежное кино [DVDRip, Low-Res HDRip, и т.д.] Zомбилэнд: Контрольный выстрел / Zombieland: Double Tap (Рубен Фляйшер) [2019 г., ужасы, боевик, комедия, WEBRip] Subs + Original (Eng) + hardsub (Kor) 90ytr90
15 | 1

0 | 265

20

17.12.2019 19:42

T Зарубежное кино [DVDRip, Low-Res HDRip, и т.д.] Zомбилэнд: Контрольный выстрел / Zombieland: Double Tap (Рубен Фляйшер) [2019 г., ужасы, комедия, боевик, HDRip] Dub (звук с онлайн-кинотеатра) + Original (Eng) + Sub 90ytr90
155 | 7

0 | 176

19

24.12.2019 13:42

Зарубежное кино [DVDRip, Low-Res HDRip, и т.д.] Zомбилэнд: Контрольный выстрел / Zombieland: Double Tap (Рубен Фляйшер / Ruben Fleischer) [2019 г., ужасы, боевик, комедия, HDRip] Dub (iTunes) + Sub (Rus) 90ytr90
1969 | 54

0 | 330

33

26.12.2019 20:27

Зарубежное кино [DVDRip, Low-Res HDRip, и т.д.] Zомбилэнд: Контрольный выстрел / Zombieland: Double Tap (Рубен Фляйшер / Ruben Fleischer) [2019 г., ужасы, боевик, комедия, BDRip-AVC] Dub (iTunes) + Original (Eng) + Sub (Rus, Eng) 90ytr90
622 | 20

0 | 501

19

28.12.2019 11:08

Зарубежное кино [DVDRip, Low-Res HDRip, и т.д.] Zомбилэнд: Контрольный выстрел / Zombieland: Double Tap (Рубен Фляйшер / Ruben Fleischer) [2019 г., ужасы, боевик, комедия, BDRip] Dub (iTunes) + hardsub (Rus) 90ytr90
160 | 7

0 | 364

9

29.12.2019 17:59

Зарубежное кино [DVD / HDDVD / BD / Remux] Zомбилэнд: Контрольный выстрел / Zombieland: Double Tap (Рубен Фляйшер / Ruben Fleischer) [2019 г., ужасы, боевик, комедия, BDRemux 1080p] Dub (Rus iTunes) + Dub (Ukr iTunes) + Original (Eng) + Sub... 90ytr90
160 | 11

0 | 325

17

27.12.2019 02:14

Зарубежное кино [DVD / HDDVD / BD / Remux] Zомбилэнд: Контрольный выстрел / Zombieland: Double Tap (Рубен Фляйшер / Ruben Fleischer) [2019 г., ужасы, боевик, комедия, UHD BDRemux] Dub (iTunes) + Original (Eng) + Sub (Rus, Eng) eXtatik
71 | 2

0 | 346

6

12.01.2020 07:43

T Зарубежное кино [HDDVDRip / BDRip / WEB-DL / HDTV 1080/720р] Zомбилэнд: Контрольный выстрел / Zombieland: Double Tap (Рубен Фляйшер / Ruben Fleischer) [2019 г., ужасы, боевик, комедия, WEBRip 1080p] Dub (звук с онлайн-кинотеатра) + Original (Eng) + hardsub... 90ytr90
998 | 24

0 | 479

36

18.12.2019 19:42

T Зарубежное кино [HDDVDRip / BDRip / WEB-DL / HDTV 1080/720р] Zомбилэнд: Контрольный выстрел / Zombieland: Double Tap (Рубен Фляйшер / Ruben Fleischer) [2019 г., ужасы, боевик, комедия, BDRip 1080p] Dub (звук с онлайн-кинотеатра) + Original (Eng) + Sub (Eng) 90ytr90
279 | 2

0 | 324

8

23.12.2019 20:23

Зарубежное кино [HDDVDRip / BDRip / WEB-DL / HDTV 1080/720р] Zомбилэнд: Контрольный выстрел / Zombieland: Double Tap (Рубен Фляйшер / Ruben Fleischer) [2019 г., ужасы, боевик, комедия, BDRip 720p] Dub (звук с онлайн-кинотеатра) + Original (Eng) + Sub (Eng) 90ytr90
54 | 1

0 | 162

9

23.12.2019 21:01

27-Дек-2019 13:05

Топик был перенесен из форума Зарубежное кино [HDDVDRip / BDRip / WEB-DL / HDTV 1080/720р] в форум Для поглощенных раздач

Причина переноса: https://underverse.su/viewtopic.php?t=153235
90ytr90
 

Яндекс.Метрика powered by Sphinx


В Н И М А Н И Е
Сайт не распространяет и не хранит электронные версии произведений, а лишь бесплатно и без коммерческой выгоды (не требуя взамен платы,
SMS и т.д.) предоставляет доступ к создаваемому пользователями каталогу ссылок на торрент-файлы, которые содержат только списки хеш-сумм.
Убедительная просьба с жалобами обращаться напрямую к пользователю, разместившему торрент файл.

Вверх