Loading...
Error

Zомбилэнд: Контрольный выстрел / Zombieland: Double Tap (Рубен Фляйшер / Ruben Fleischer) [2019 г., ужасы, боевик, комедия, BDRip 720p] Dub (звук с онлайн-кинотеатра) + Original (Eng) + Sub (Eng)

Статистика раздачи
Размер:  4,5 GB   |    Зарегистрирован:  1 месяц 30 дней   |    Скачан:  9 раз

Полного источника не было: 2 дня 2 часа

Сидов:  0  |  0 KB/s  ]   Личеров:  0  |  0 KB/s  ]

* - сиды/пиры с внешних источников

   
 
Автор Сообщение

90ytr90 

23-Дек-2019 21:01

Zомбилэнд: Контрольный выстрел / Zombieland: Double Tap


Название: Zомбилэнд: Контрольный выстрел
Оригинальное название: Zombieland: Double Tap
Год выпуска: 2019
Жанр: ужасы, комедия, боевик
Режиссер: Рубен Фляйшер
Актеры фильма: Джесси Айзенберг, Вуди Харрельсон, Эмма Стоун, Эбигейл Бреслин, Зои Дойч, Розарио Доусон, Эван Джогиа, Билл Мюррей, Дэн Эйкройд, Люк Уилсон, Томас Миддлдитч, Виктория Холл

Описание:
Беспощадная и бесстрашная четверка охотников на зомби продолжает свое путешествие в глубь страны. На этот раз им предстоит сразиться не только с новыми видами живых мертвецов, но и познакомиться с другими выжившими. Кроме того, в собственных рядах наших героев намечается серьезный разлад.



Страна: США, Канада
Студия: Columbia Pictures Corporation, Pariah
Продолжительность: 01:39:01
Перевод: Дублированный (Online Cin.)

Кодек: h.264
Качество: BDRip 720p
Видео: AVC/H.264, 1280x536, ~4808 Kbps
Звук #1: AC3, 2 ch, 192 Kbps - Русский
Звук #2: DTS, 6 ch, 1509 Kbps - Английский
Субтитры: Английские (Forced, Full)
Format : Matroska
Format version : Version 4
File size : 4.50 GiB
Duration : 1 h 39 min
Overall bit rate : 6 508 kb/s
Encoded date : UTC 2019-12-22 20:55:39
Writing application : mkvmerge v40.0.0 ('Old Town Road + Pony') 64-bit
Writing library : libebml v1.3.9 + libmatroska v1.5.2

Video
ID : 1
Format : AVC
Format/Info : Advanced Video Codec
Format profile : High@L4.1
Format settings : CABAC / 5 Ref Frames
Format settings, CABAC : Yes
Format settings, Reference frames : 5 frames
Codec ID : V_MPEG4/ISO/AVC
Duration : 1 h 39 min
Bit rate : 4 808 kb/s
Width : 1 280 pixels
Height : 536 pixels
Display aspect ratio : 2.40:1
Frame rate mode : Constant
Frame rate : 23.976 (24000/1001) FPS
Color space : YUV
Chroma subsampling : 4:2:0
Bit depth : 8 bits
Scan type : Progressive
Bits/(Pixel*Frame) : 0.292
Stream size : 3.24 GiB (72%)
Writing library : x264 core 158 r2988 7817004
Encoding settings : cabac=1 / ref=5 / deblock=1:-3:-3 / analyse=0x3:0x113 / me=umh / subme=8 / psy=1 / psy_rd=1.00:0.00 / mixed_ref=1 / me_range=16 / chroma_me=1 / trellis=1 / 8x8dct=1 / cqm=0 / deadzone=21,11 / fast_pskip=1 / chroma_qp_offset=-2 / threads=17 / lookahead_threads=2 / sliced_threads=0 / nr=0 / decimate=1 / interlaced=0 / bluray_compat=0 / constrained_intra=0 / bframes=3 / b_pyramid=2 / b_adapt=1 / b_bias=0 / direct=3 / weightb=1 / open_gop=0 / weightp=2 / keyint=250 / keyint_min=23 / scenecut=40 / intra_refresh=0 / rc_lookahead=50 / rc=2pass / mbtree=1 / bitrate=4808 / ratetol=1.0 / qcomp=0.60 / qpmin=0 / qpmax=69 / qpstep=4 / cplxblur=20.0 / qblur=0.5 / ip_ratio=1.40 / aq=1:1.00
Language : English
Default : Yes
Forced : No

Audio #1
ID : 2
Format : AC-3
Format/Info : Audio Coding 3
Commercial name : Dolby Digital
Codec ID : A_AC3
Duration : 1 h 39 min
Bit rate mode : Constant
Bit rate : 192 kb/s
Channel(s) : 2 channels
Channel layout : L R
Sampling rate : 48.0 kHz
Frame rate : 31.250 FPS (1536 SPF)
Bit depth : 16 bits
Compression mode : Lossy
Stream size : 136 MiB (3%)
Title : Dub [Online cin.]
Language : Russian
Service kind : Complete Main
Default : Yes
Forced : Yes

Audio #2
ID : 3
Format : DTS
Format/Info : Digital Theater Systems
Codec ID : A_DTS
Duration : 1 h 39 min
Bit rate mode : Constant
Bit rate : 1 509 kb/s
Channel(s) : 6 channels
Channel layout : C L R Ls Rs LFE
Sampling rate : 48.0 kHz
Frame rate : 93.750 FPS (512 SPF)
Bit depth : 24 bits
Compression mode : Lossy
Stream size : 1.04 GiB (23%)
Title : Original
Language : English
Default : No
Forced : No

Text #1
ID : 4
Format : UTF-8
Codec ID : S_TEXT/UTF8
Codec ID/Info : UTF-8 Plain Text
Title : English-Forced
Language : English
Default : No
Forced : No

Text #2
ID : 5
Format : UTF-8
Codec ID : S_TEXT/UTF8
Codec ID/Info : UTF-8 Plain Text
Title : Full
Language : English
Default : No
Forced : No

Menu
00:00:00.000 : en:00:00:00.000
00:05:00.675 : en:00:05:00.675
00:11:08.001 : en:00:11:08.001
00:15:24.507 : en:00:15:24.507
00:21:16.192 : en:00:21:16.192
00:29:15.545 : en:00:29:15.545
00:36:55.422 : en:00:36:55.422
00:44:03.015 : en:00:44:03.015
00:50:12.968 : en:00:50:12.968
00:57:52.511 : en:00:57:52.511
01:03:51.870 : en:01:03:51.870
01:06:50.048 : en:01:06:50.048
01:10:12.125 : en:01:10:12.125
01:15:40.119 : en:01:15:40.119
01:23:45.312 : en:01:23:45.312
01:29:48.216 : en:01:29:48.216

Этот торрент недоступен для скачивания без регистрации, однако доступен по публичной magnet-ссылке (источники с публичных трекеров). Перед использованием ссылки прочтите, пожалуйста Пользовательское соглашение, а также как можно дольше оставайтесь на раздаче! Для того, чтобы скачать сам торрент-файл (который видит больше источников), а также для того, чтобы поблагодарить релизера, вам необходимо зарегистрироваться. Если регистрироваться лень - вы можете также попробовать скачать релиз по нашим партнерским ссылкам ниже. Кроме того, зарегистрированным пользователям не показывается всплывающая реклама при скачивании.

[underver.se].t155337.torrent
Трекер: Зарегистрирован   [ 23.12.2019 21:01 ]  

Статус: проверено (by eXtatik at 04.01.2020 19:06)
Поблагодарили: пока никто не поблагодарил...
Тип торрента: публичный - доступные источники с открытых трекеров: 
Размер: 4,5 GB (занимает 1,03 DVDR, для записи нужно 2 болванки DVDR/RW)
 
 
Похожие темы
Форум Тема Автор Торрент Отв. Посл. сооб.
T Зарубежное кино [DVDRip, Low-Res HDRip, и т.д.] Zомбилэнд: Контрольный выстрел / Zombieland: Double Tap (Рубен Фляйшер) [2019 г., ужасы, боевик, комедия, WEBRip] Subs + Original (Eng) + hardsub (Kor) 90ytr90
15 | 1

0 | 265

20

17.12.2019 19:42

T Зарубежное кино [DVDRip, Low-Res HDRip, и т.д.] Zомбилэнд: Контрольный выстрел / Zombieland: Double Tap (Рубен Фляйшер) [2019 г., ужасы, комедия, боевик, HDRip] Dub (звук с онлайн-кинотеатра) + Original (Eng) + Sub 90ytr90
155 | 7

0 | 176

19

24.12.2019 13:42

Зарубежное кино [DVDRip, Low-Res HDRip, и т.д.] Zомбилэнд: Контрольный выстрел / Zombieland: Double Tap (Рубен Фляйшер / Ruben Fleischer) [2019 г., ужасы, боевик, комедия, HDRip] Dub (iTunes) + Sub (Rus) 90ytr90
1969 | 54

0 | 330

33

26.12.2019 20:27

Зарубежное кино [DVDRip, Low-Res HDRip, и т.д.] Zомбилэнд: Контрольный выстрел / Zombieland: Double Tap (Рубен Фляйшер / Ruben Fleischer) [2019 г., ужасы, боевик, комедия, BDRip-AVC] Dub (iTunes) + Original (Eng) + Sub (Rus, Eng) 90ytr90
622 | 20

0 | 501

19

28.12.2019 11:08

Зарубежное кино [DVDRip, Low-Res HDRip, и т.д.] Zомбилэнд: Контрольный выстрел / Zombieland: Double Tap (Рубен Фляйшер / Ruben Fleischer) [2019 г., ужасы, боевик, комедия, BDRip] Dub (iTunes) + hardsub (Rus) 90ytr90
160 | 7

0 | 363

9

29.12.2019 17:59

Зарубежное кино [DVD / HDDVD / BD / Remux] Zомбилэнд: Контрольный выстрел / Zombieland: Double Tap (Рубен Фляйшер / Ruben Fleischer) [2019 г., ужасы, боевик, комедия, BDRemux 1080p] Dub (Rus iTunes) + Dub (Ukr iTunes) + Original (Eng) + Sub... 90ytr90
160 | 11

0 | 325

17

27.12.2019 02:14

Зарубежное кино [DVD / HDDVD / BD / Remux] Zомбилэнд: Контрольный выстрел / Zombieland: Double Tap (Рубен Фляйшер / Ruben Fleischer) [2019 г., ужасы, боевик, комедия, UHD BDRemux] Dub (iTunes) + Original (Eng) + Sub (Rus, Eng) eXtatik
71 | 2

0 | 345

6

12.01.2020 07:43

T Зарубежное кино [HDDVDRip / BDRip / WEB-DL / HDTV 1080/720р] Zомбилэнд: Контрольный выстрел / Zombieland: Double Tap (Рубен Фляйшер / Ruben Fleischer) [2019 г., ужасы, боевик, комедия, WEBRip 1080p] Dub (звук с онлайн-кинотеатра) + Original (Eng) + hardsub... 90ytr90
998 | 24

0 | 479

36

18.12.2019 19:42

T Зарубежное кино [HDDVDRip / BDRip / WEB-DL / HDTV 1080/720р] Zомбилэнд: Контрольный выстрел / Zombieland: Double Tap (Рубен Фляйшер / Ruben Fleischer) [2019 г., ужасы, боевик, комедия, BDRip 1080p] Dub (звук с онлайн-кинотеатра) + Original (Eng) + Sub (Eng) 90ytr90
279 | 2

0 | 324

8

23.12.2019 20:23

Зарубежное кино [HDDVDRip / BDRip / WEB-DL / HDTV 1080/720р] Zомбилэнд: Контрольный выстрел / Zombieland: Double Tap (Рубен Фляйшер / Ruben Fleischer) [2019 г., ужасы, боевик, комедия, BDRip 1080p] Dub (Rus iTunes) + Dub (Ukr iTunes) + Original (Eng) + Sub... 90ytr90
788 | 33

0 | 289

33

26.12.2019 20:02


Яндекс.Метрика powered by Sphinx


В Н И М А Н И Е
Сайт не распространяет и не хранит электронные версии произведений, а лишь бесплатно и без коммерческой выгоды (не требуя взамен платы,
SMS и т.д.) предоставляет доступ к создаваемому пользователями каталогу ссылок на торрент-файлы, которые содержат только списки хеш-сумм.
Убедительная просьба с жалобами обращаться напрямую к пользователю, разместившему торрент файл.

Вверх