Loading...
Error

Zомбилэнд: Контрольный выстрел / Zombieland: Double Tap (Рубен Фляйшер / Ruben Fleischer) [2019 г., ужасы, боевик, комедия, WEBRip 1080p] Subs + Original (Eng) + hardsub (Kor)

Статистика раздачи
Размер:  5,2 GB   |    Зарегистрирован:  2 месяца 6 дней   |    Скачан:  12 раз

Полного источника не было: 13 дней

Сидов:  0  |  0 KB/s  ]   Личеров:  0  |  0 KB/s  ]

* - сиды/пиры с внешних источников

   
 
Автор Сообщение

90ytr90 

16-Дек-2019 20:34

Zомбилэнд: Контрольный выстрел / Zombieland: Double Tap


Название: Zомбилэнд: Контрольный выстрел
Оригинальное название: Zombieland: Double Tap
Год выхода: 2019
Жанр: ужасы, боевик, комедия

Режиссёр: Рубен Фляйшер

В ролях: Джесси Айзенберг, Вуди Харрельсон, Эмма Стоун, Эбигейл Бреслин, Зои Дойч, Розарио Доусон, Эван Джогиа, Билл Мюррей, Дэн Эйкройд, Люк Уилсон

Описание: Беспощадная и бесстрашная четверка охотников на зомби продолжает свое путешествие в глубь страны. На этот раз им предстоит сразиться не только с новыми видами живых мертвецов, но и вступить в схватку с другими выжившими, которые настроены совсем не дружелюбно. Кроме того, в собственных рядах охотников намечается серьезный разлад.



Страна: США, Канада
Продолжительность: 01:39:03
Перевод: Субтитры

Кодек: x.264
Качество: WEBRip 1080p
Видео: AVC, 1920x1080 (16:9), 29.970 fps, 7 325 kb/s
Звук: AC3, 48.0 kHz, 2 ch, 192 kb/s | ENG
Субтитры: Корейские (вшитые), русские (полные), украинские (полные). английские (полные)

Рекламы нет | Сэмпл
General
Unique ID : 251586661086702274358613328756857018811 (0xBD45D4134D5D5BCB956927C6461699BB)
Complete name : Zombieland.Double.Tap.2019.WEB-DLRip.1080p.mkv
Format : Matroska
Format version : Version 4
File size : 5.20 GiB
Duration : 1 h 39 min
Overall bit rate : 7 521 kb/s
Encoded date : UTC 2019-12-16 15:50:21
Writing application : mkvmerge v8.3.0 ('Over the Horizon') 64bit
Writing library : libebml v1.3.1 + libmatroska v1.4.2

Video
ID : 1
Format : AVC
Format/Info : Advanced Video Codec
Format profile : Main@L4
Format settings : CABAC / 4 Ref Frames
Format settings, CABAC : Yes
Format settings, ReFrames : 4 frames
Codec ID : V_MPEG4/ISO/AVC
Duration : 1 h 39 min
Bit rate : 7 325 kb/s
Width : 1 920 pixels
Height : 1 080 pixels
Display aspect ratio : 16:9
Frame rate mode : Variable
Frame rate : 29.970 FPS
Color space : YUV
Chroma subsampling : 4:2:0
Bit depth : 8 bits
Scan type : Progressive
Bits/(Pixel*Frame) : 0.118
Stream size : 5.07 GiB (97%)
Language : English
Default : Yes
Forced : No
Color range : Limited
Color primaries : BT.709
Transfer characteristics : BT.709
Matrix coefficients : BT.709

Audio
ID : 2
Format : AC-3
Format/Info : Audio Coding 3
Commercial name : Dolby Digital
Codec ID : A_AC3
Duration : 1 h 39 min
Bit rate mode : Constant
Bit rate : 192 kb/s
Channel(s) : 2 channels
Channel layout : L R
Sampling rate : 48.0 kHz
Frame rate : 31.250 FPS (1536 SPF)
Bit depth : 16 bits
Compression mode : Lossy
Stream size : 136 MiB (3%)
Language : English
Service kind : Complete Main
Default : Yes
Forced : No

Text #1
ID : 3
Format : UTF-8
Codec ID : S_TEXT/UTF8
Codec ID/Info : UTF-8 Plain Text
Duration : 1 h 38 min
Bit rate : 144 b/s
Count of elements : 1805
Stream size : 104 KiB (0%)
Title : Full
Language : Russian
Default : Yes
Forced : Yes

Text #2
ID : 4
Format : UTF-8
Codec ID : S_TEXT/UTF8
Codec ID/Info : UTF-8 Plain Text
Duration : 1 h 38 min
Bit rate : 215 b/s
Count of elements : 1805
Stream size : 155 KiB (0%)
Title : Full (colored)
Language : Russian
Default : No
Forced : No

Text #3
ID : 5
Format : UTF-8
Codec ID : S_TEXT/UTF8
Codec ID/Info : UTF-8 Plain Text
Duration : 1 h 38 min
Bit rate : 140 b/s
Count of elements : 1806
Stream size : 101 KiB (0%)
Title : Full
Language : Ukrainian
Default : No
Forced : No

Text #4
ID : 6
Format : UTF-8
Codec ID : S_TEXT/UTF8
Codec ID/Info : UTF-8 Plain Text
Duration : 1 h 38 min
Bit rate : 211 b/s
Count of elements : 1805
Stream size : 152 KiB (0%)
Title : Full (colored)
Language : Ukrainian
Default : No
Forced : No

Text #5
ID : 7
Format : UTF-8
Codec ID : S_TEXT/UTF8
Codec ID/Info : UTF-8 Plain Text
Duration : 1 h 38 min
Bit rate : 83 b/s
Count of elements : 1805
Stream size : 60.2 KiB (0%)
Title : Full
Language : English
Default : No
Forced : No

Text #6
ID : 8
Format : UTF-8
Codec ID : S_TEXT/UTF8
Codec ID/Info : UTF-8 Plain Text
Duration : 1 h 38 min
Bit rate : 154 b/s
Count of elements : 1805
Stream size : 111 KiB (0%)
Title : Full (colored)
Language : English
Default : No
Forced : No
Внимание ! Русские , украинские субтитры - машинный перевод !

Этот торрент недоступен для скачивания без регистрации, однако доступен по публичной magnet-ссылке (источники с публичных трекеров). Перед использованием ссылки прочтите, пожалуйста Пользовательское соглашение, а также как можно дольше оставайтесь на раздаче! Для того, чтобы скачать сам торрент-файл (который видит больше источников), а также для того, чтобы поблагодарить релизера, вам необходимо зарегистрироваться. Если регистрироваться лень - вы можете также попробовать скачать релиз по нашим партнерским ссылкам ниже. Кроме того, зарегистрированным пользователям не показывается всплывающая реклама при скачивании.

[underver.se].t154571.torrent
Трекер: Зарегистрирован   [ 16.12.2019 20:37 ]  

Статус: T временная (by 90ytr90 at 22.12.2019 19:08)
Поблагодарили: пока никто не поблагодарил...
Тип торрента: публичный - доступные источники с открытых трекеров: 
Размер: 5,2 GB (занимает 1,19 DVDR, для записи нужно 2 болванки DVDR/RW)
 
 
Похожие темы
Форум Тема Автор Торрент Отв. Посл. сооб.
T Зарубежное кино [DVDRip, Low-Res HDRip, и т.д.] Zомбилэнд: Контрольный выстрел / Zombieland: Double Tap (Рубен Фляйшер) [2019 г., ужасы, боевик, комедия, WEBRip] Subs + Original (Eng) + hardsub (Kor) 90ytr90
15 | 1

0 | 265

20

17.12.2019 19:42

T Зарубежное кино [DVDRip, Low-Res HDRip, и т.д.] Zомбилэнд: Контрольный выстрел / Zombieland: Double Tap (Рубен Фляйшер) [2019 г., ужасы, комедия, боевик, HDRip] Dub (звук с онлайн-кинотеатра) + Original (Eng) + Sub 90ytr90
155 | 7

0 | 176

19

24.12.2019 13:42

Зарубежное кино [DVDRip, Low-Res HDRip, и т.д.] Zомбилэнд: Контрольный выстрел / Zombieland: Double Tap (Рубен Фляйшер / Ruben Fleischer) [2019 г., ужасы, боевик, комедия, HDRip] Dub (iTunes) + Sub (Rus) 90ytr90
1969 | 54

0 | 330

33

26.12.2019 20:27

Зарубежное кино [DVDRip, Low-Res HDRip, и т.д.] Zомбилэнд: Контрольный выстрел / Zombieland: Double Tap (Рубен Фляйшер / Ruben Fleischer) [2019 г., ужасы, боевик, комедия, BDRip-AVC] Dub (iTunes) + Original (Eng) + Sub (Rus, Eng) 90ytr90
622 | 20

0 | 501

19

28.12.2019 11:08

Зарубежное кино [DVDRip, Low-Res HDRip, и т.д.] Zомбилэнд: Контрольный выстрел / Zombieland: Double Tap (Рубен Фляйшер / Ruben Fleischer) [2019 г., ужасы, боевик, комедия, BDRip] Dub (iTunes) + hardsub (Rus) 90ytr90
160 | 7

0 | 363

9

29.12.2019 17:59

Зарубежное кино [DVD / HDDVD / BD / Remux] Zомбилэнд: Контрольный выстрел / Zombieland: Double Tap (Рубен Фляйшер / Ruben Fleischer) [2019 г., ужасы, боевик, комедия, BDRemux 1080p] Dub (Rus iTunes) + Dub (Ukr iTunes) + Original (Eng) + Sub... 90ytr90
160 | 11

0 | 325

17

27.12.2019 02:14

Зарубежное кино [DVD / HDDVD / BD / Remux] Zомбилэнд: Контрольный выстрел / Zombieland: Double Tap (Рубен Фляйшер / Ruben Fleischer) [2019 г., ужасы, боевик, комедия, UHD BDRemux] Dub (iTunes) + Original (Eng) + Sub (Rus, Eng) eXtatik
71 | 2

0 | 345

6

12.01.2020 07:43

T Зарубежное кино [HDDVDRip / BDRip / WEB-DL / HDTV 1080/720р] Zомбилэнд: Контрольный выстрел / Zombieland: Double Tap (Рубен Фляйшер / Ruben Fleischer) [2019 г., ужасы, боевик, комедия, WEBRip 1080p] Dub (звук с онлайн-кинотеатра) + Original (Eng) + hardsub... 90ytr90
998 | 24

0 | 479

36

18.12.2019 19:42

T Зарубежное кино [HDDVDRip / BDRip / WEB-DL / HDTV 1080/720р] Zомбилэнд: Контрольный выстрел / Zombieland: Double Tap (Рубен Фляйшер / Ruben Fleischer) [2019 г., ужасы, боевик, комедия, BDRip 1080p] Dub (звук с онлайн-кинотеатра) + Original (Eng) + Sub (Eng) 90ytr90
279 | 2

0 | 324

8

23.12.2019 20:23

Зарубежное кино [HDDVDRip / BDRip / WEB-DL / HDTV 1080/720р] Zомбилэнд: Контрольный выстрел / Zombieland: Double Tap (Рубен Фляйшер / Ruben Fleischer) [2019 г., ужасы, боевик, комедия, BDRip 720p] Dub (звук с онлайн-кинотеатра) + Original (Eng) + Sub (Eng) 90ytr90
54 | 1

0 | 161

9

23.12.2019 21:01


Яндекс.Метрика powered by Sphinx


В Н И М А Н И Е
Сайт не распространяет и не хранит электронные версии произведений, а лишь бесплатно и без коммерческой выгоды (не требуя взамен платы,
SMS и т.д.) предоставляет доступ к создаваемому пользователями каталогу ссылок на торрент-файлы, которые содержат только списки хеш-сумм.
Убедительная просьба с жалобами обращаться напрямую к пользователю, разместившему торрент файл.

Вверх