Loading...
Error

Я иду искать / Ready or Not (Мэттью Беттинелли / Matt Bettinelli-Olpin, Тайлер Джиллетт / Tyler Gillett) [2019 г., ужасы, триллер, комедия, детектив, BDRip-AVC] VO (Solod)

Статистика раздачи
Размер:  1,49 GB   |    Зарегистрирован:  2 месяца 20 дней   |    Скачан:  6 раз
Сидов:  1  |  0 KB/s  ]   Личеров:  0  |  0 KB/s  ]

* - сиды/пиры с внешних источников

   
 
Автор Сообщение

90ytr90 

28-Ноя-2019 14:45

Я иду искать / Ready or Not
«The Game Begins»

Страна: США
Год выпуска: 2019
Жанр: ужасы, триллер, комедия, детектив
Продолжительность: 01:35:22
Озвучивание: любительское (одноголосое закадровое) [Solod]
Режиссёр: Мэттью Беттинелли / Matt Bettinelli-Olpin, Тайлер Джиллетт / Tyler Gillett

В ролях:
Самара Уивинг, Адам Броди, Марк О'Брайэн, Генри Черни, Энди МакДауэлл, Мелани Скрофано, Кристиан Бруун, Никки Гуаданьи, Элиз Левек, Джон Ралстон


Сюжет фильма:
Юная невеста - теперь часть семьи своего новоиспеченного мужа, богатого, но эксцентричного рода, чтящего вековые традиции. Но кто бы мог подумать, что знакомство с родителями супруга превратится в смертельную игру, в которой все борются не на жизнь, а на смерть.

  • Дата мировой премьеры: 27 июля 2019
  • Дата российской премьеры: 29 августа 2019, «Двадцатый Век Фокс СНГ»
             
Качество видео: BDRip-AVC
Формат: MKV
Видео: AVC, 1024x430, ~1800 kbps
Аудио: AC3, 448 kbps, 6 ch, VO [Solod]

Rip by VoiceOver Solod

General 
Unique ID : 262452689905902710433255715020112342405 (0xC5728CA896FA6D62F232B42DF76B2D85)
Complete name : C:\uTorrent\ready.or.not.2019.solod.rus.5.1.mkv
Format : Matroska
Format version : Version 4
File size : 1.49 GiB
Duration : 1 h 35 min
Overall bit rate : 2 233 kb/s
Movie name : Ready or Not | 2019 | Solod
Released date : 2019
Encoded date : UTC 2019-11-27 20:24:52
Writing application : mkvmerge v40.0.0 ('Old Town Road + Pony') 64-bit
Writing library : libebml v1.3.9 + libmatroska v1.5.2 / Lavf58.29.100

Video
ID : 1
Format : AVC
Format/Info : Advanced Video Codec
Format profile : High@L4.1
Format settings : CABAC / 10 Ref Frames
Format settings, CABAC : Yes
Format settings, Reference frames : 10 frames
Codec ID : V_MPEG4/ISO/AVC
Duration : 1 h 35 min
Bit rate : 1 800 kb/s
Width : 1 024 pixels
Height : 430 pixels
Display aspect ratio : 2.40:1
Frame rate mode : Constant
Frame rate : 23.976 (24000/1001) FPS
Color space : YUV
Chroma subsampling : 4:2:0
Bit depth : 8 bits
Scan type : Progressive
Bits/(Pixel*Frame) : 0.171
Stream size : 1.19 GiB (80%)
Writing library : x264 core 158
Encoding settings : cabac=1 / ref=10 / deblock=1:-2:-2 / analyse=0x3:0x113 / me=umh / subme=11 / psy=1 / psy_rd=1,15:0,20 / mixed_ref=1 / me_range=24 / chroma_me=1 / trellis=2 / 8x8dct=1 / cqm=0 / deadzone=21,11 / fast_pskip=1 / chroma_qp_offset=-3 / threads=12 / lookahead_threads=1 / sliced_threads=0 / nr=0 / decimate=1 / interlaced=0 / bluray_compat=0 / constrained_intra=0 / bframes=11 / b_pyramid=2 / b_adapt=1 / b_bias=0 / direct=1 / weightb=1 / open_gop=0 / weightp=2 / keyint=240 / keyint_min=24 / scenecut=40 / intra_refresh=0 / rc_lookahead=40 / rc=2pass / mbtree=1 / bitrate=1800 / ratetol=1,0 / qcomp=0,60 / qpmin=0 / qpmax=69 / qpstep=4 / cplxblur=20,0 / qblur=0,5 / vbv_maxrate=62500 / vbv_bufsize=78125 / nal_hrd=none / filler=0 / ip_ratio=1,40 / aq=1:1,00
Default : Yes
Forced : No
Color range : Limited
Color primaries : BT.709
Transfer characteristics : BT.709
Matrix coefficients : BT.709

Audio
ID : 2
Format : AC-3
Format/Info : Audio Coding 3
Commercial name : Dolby Digital
Codec ID : A_AC3
Duration : 1 h 35 min
Bit rate mode : Constant
Bit rate : 448 kb/s
Channel(s) : 6 channels
Channel layout : L R C LFE Ls Rs
Sampling rate : 48.0 kHz
Frame rate : 31.250 FPS (1536 SPF)
Compression mode : Lossy
Stream size : 306 MiB (20%)
Title : Solod
Language : Russian
Service kind : Complete Main
Default : Yes
Forced : No



pic pic pic pic

Этот торрент недоступен для скачивания без регистрации, однако доступен по публичной magnet-ссылке (источники с публичных трекеров). Перед использованием ссылки прочтите, пожалуйста Пользовательское соглашение, а также как можно дольше оставайтесь на раздаче! Для того, чтобы скачать сам торрент-файл (который видит больше источников), а также для того, чтобы поблагодарить релизера, вам необходимо зарегистрироваться. Если регистрироваться лень - вы можете также попробовать скачать релиз по нашим партнерским ссылкам ниже. Кроме того, зарегистрированным пользователям не показывается всплывающая реклама при скачивании.

[underver.se].t152715.torrent
Трекер: Зарегистрирован   [ 28.11.2019 14:45 ]  

Статус: проверено (by 90ytr90 at 28.11.2019 21:06)
Поблагодарили: пока никто не поблагодарил...
Тип торрента: публичный - доступные источники с открытых трекеров: 
Размер: 1,49 GB (занимает 0,34 DVDR, для записи нужно 1 болванка DVDR/RW)
 
 
Похожие темы
Форум Тема Автор Торрент Отв. Посл. сооб.
Зарубежное кино [DVDRip, Low-Res HDRip, и т.д.] Я иду искать / Ready or Not (Мэттью Беттинелли / Matt Bettinelli-Olpin, Тайлер Джиллетт / Tyler Gillett) [2019 г., ужасы, триллер, комедия, детектив, BDRip] VO (Solod) 90ytr90
34 | 0

0 | 631

9

28.11.2019 14:44

Зарубежное кино [DVDRip, Low-Res HDRip, и т.д.] Я иду искать / Ready or Not (Мэттью Беттинелли / Matt Bettinelli-Olpin, Тайлер Джиллетт / Tyler Gillett) [2019 г., ужасы, триллер, комедия, детектив, BDRip] Dub (iTunes) + Sub (Rus) 90ytr90
2695 | 67

0 | 1843

24

28.11.2019 20:58

Зарубежное кино [DVDRip, Low-Res HDRip, и т.д.] Я иду искать / Ready or Not (Мэттью Беттинелли / Matt Bettinelli-Olpin, Тайлер Джиллетт / Tyler Gillett) [2019 г., ужасы, триллер, комедия, детектив, BDRip-AVC] Dub (Rus iTunes) + Dub (Ukr iTunes) +... 90ytr90
85 | 1

0 | 1749

20

28.11.2019 22:58

Зарубежное кино [DVDRip, Low-Res HDRip, и т.д.] Я иду искать / Ready or Not (Мэттью Беттинелли / Matt Bettinelli-Olpin, Тайлер Джиллетт / Tyler Gillett) [2019 г., ужасы, триллер, комедия, детектив, BDRip] Dub (iTunes) + hardsub (Rus) 90ytr90
186 | 3

0 | 975

7

29.11.2019 18:53

Зарубежное кино [DVDRip, Low-Res HDRip, и т.д.] Я иду искать / Ready or Not (Мэттью Беттинелли / Matt Bettinelli-Olpin, Тайлер Джиллетт / Tyler Gillett) [2019 г., ужасы, триллер, комедия, детектив, BDRip-AVC] Dub (iTunes) + Sub (Rus) 90ytr90
267 | 7

0 | 1369

11

01.12.2019 17:12

Зарубежное кино [DVD / HDDVD / BD / Remux] Я иду искать / Ready or Not (Мэттью Беттинелли / Matt Bettinelli-Olpin, Тайлер Джиллетт / Tyler Gillett) [2019 г., ужасы, триллер, комедия, детектив, BDRemux 1080p] Dub (Rus iTunes) + Dub (Ukr... 90ytr90
57 | 2

0 | 1950

15

28.11.2019 20:59

Зарубежное кино [HDDVDRip / BDRip / WEB-DL / HDTV 1080/720р] Я иду искать / Ready or Not (Мэттью Беттинелли / Matt Bettinelli-Olpin, Тайлер Джиллетт / Tyler Gillett) [2019 г., ужасы, триллер, комедия, детектив, BDRip 1080p] Dub (Rus iTunes) + Dub (Ukr iTunes)... 90ytr90
680 | 36

0 | 1983

33

28.11.2019 19:49

Зарубежное кино [HDDVDRip / BDRip / WEB-DL / HDTV 1080/720р] Я иду искать / Ready or Not (Мэттью Беттинелли / Matt Bettinelli-Olpin, Тайлер Джиллетт / Tyler Gillett) [2019 г., ужасы, триллер, комедия, детектив, BDRip 1080p] VO (Solod) + Original (Eng) + Sub... 90ytr90
3 | 0

0 | 1913

11

28.11.2019 19:51

Зарубежное кино [HDDVDRip / BDRip / WEB-DL / HDTV 1080/720р] Я иду искать / Ready or Not (Мэттью Беттинелли / Matt Bettinelli-Olpin, Тайлер Джиллетт / Tyler Gillett) [2019 г., ужасы, триллер, комедия, детектив, BDRip 720p] Dub (Rus iTunes) + Dub (Ukr iTunes) +... 90ytr90
859 | 45

0 | 1832

32

28.11.2019 20:59

Зарубежное кино [HDDVDRip / BDRip / WEB-DL / HDTV 1080/720р] Я иду искать / Ready or Not (Мэттью Беттинелли / Matt Bettinelli-Olpin, Тайлер Джиллетт / Tyler Gillett) [2019 г., ужасы, триллер, комедия, детектив, BDRip 720p] Dub (iTunes) 90ytr90
111 | 3

0 | 1436

20

01.12.2019 17:18


Яндекс.Метрика powered by Sphinx


В Н И М А Н И Е
Сайт не распространяет и не хранит электронные версии произведений, а лишь бесплатно и без коммерческой выгоды (не требуя взамен платы,
SMS и т.д.) предоставляет доступ к создаваемому пользователями каталогу ссылок на торрент-файлы, которые содержат только списки хеш-сумм.
Убедительная просьба с жалобами обращаться напрямую к пользователю, разместившему торрент файл.

Вверх