Loading...
Error

Король Лев / The Lion King (Джон Фавро / Jon Favreau) [2019 г., мультфильм, мюзикл, драма, приключения, семейный, BDRemux 1080p] Dub + Original (Eng) + Sub (Rus, Eng)

Статистика раздачи
Размер:  27,51 GB   |    Зарегистрирован:  2 месяца 26 дней   |    Скачан:  9 раз

Полного источника не было: 1 месяц 10 дней

Сидов:  0  |  0 KB/s  ]   Личеров:  0  |  0 KB/s  ]

* - сиды/пиры с внешних источников

   
 
Автор Сообщение

90ytr90 

27-Ноя-2019 07:54

Король Лев / The Lion King
«The King Has Returned»

Страна: США
Год выпуска: 2019
Жанр: мультфильм, мюзикл, драма, приключения, семейный
Продолжительность: 01:58:14
Озвучивание:
  • профессиональное (полное дублирование) [лицензия]
  • оригинальная звуковая дорожка [английский]

Режиссёр: Джон Фавро / Jon Favreau

Роли озвучивали:
Джеймс Эрл Джонс, Дональд Гловер, Чиветель Эджиофор, Джон Оливер, Джон Кани, Элфри Вудард, Джейдон Маккрэри, Шахади Райт Джозеф, Пенни Джонсон, Кигэн-Майкл Ки


Сюжет фильма:
История об отважном львенке по имени Симба. Знакомые с детства герои взрослеют, влюбляются, познают себя и окружающий мир, совершают ошибки и делают правильный выбор.

  • Дата мировой премьеры: 12 июля 2019
  • Дата российской премьеры: 18 июля 2019, «WDSSPR» 3D
             
Качество видео: BDRemux 1080p
Формат: MKV
Видео: AVC, 1920x1080 (16:9), 27.6 Mbps, 23.976 (24000/1001) fps, 0.554 bit/pixel
Аудио #1: AC3, 640 kbps, 6 ch, 48 kHz, Dub [лицензия]
Аудио #2: DTS-HD MA, 5091 kbps, 8 ch, 48 kHz, Original [English]
Субтитры: Russian (full, SDH), English (full)
Навигация по главам: есть (21)

Сборка: seleZen
General 
Unique ID : 214478177749718583853535451980413138088 (0xA15AFE97325D5E74E79B38A69361F4A8)
Complete name : F:Video111The.Lion.King.2019.Lic.BDREMUX.1080p.seleZen.mkv
Format : Matroska
Format version : Version 4
File size : 27.5 GiB
Duration : 1 h 58 min
Overall bit rate mode : Variable
Overall bit rate : 33.3 Mb/s
Movie name : The Lion King 2019 from селезень
Encoded date : UTC 2019-11-26 20:54:05
Writing application : mkvmerge v40.0.0 ('Old Town Road + Pony') 64-bit
Writing library : libebml v1.3.9 + libmatroska v1.5.2

Video
ID : 1
Format : AVC
Format/Info : Advanced Video Codec
Format profile : High@L4.1
Format settings : CABAC / 4 Ref Frames
Format settings, CABAC : Yes
Format settings, Reference : 4 frames
Codec ID : V_MPEG4/ISO/AVC
Duration : 1 h 58 min
Bit rate mode : Variable
Bit rate : 27.6 Mb/s
Maximum bit rate : 35.0 Mb/s
Width : 1 920 pixels
Height : 1 080 pixels
Display aspect ratio : 16:9
Frame rate mode : Constant
Frame rate : 23.976 (24000/1001) FPS
Color space : YUV
Chroma subsampling : 4:2:0
Bit depth : 8 bits
Scan type : Progressive
Bits/(Pixel*Frame) : 0.554
Stream size : 22.8 GiB (83%)
Language : English
Default : Yes
Forced : No

Audio #1
ID : 2
Format : AC-3
Format/Info : Audio Coding 3
Commercial name : Dolby Digital
Codec ID : A_AC3
Duration : 1 h 58 min
Bit rate mode : Constant
Bit rate : 640 kb/s
Channel(s) : 6 channels
Channel layout : L R C LFE Ls Rs
Sampling rate : 48.0 kHz
Frame rate : 31.250 FPS (1536 SPF)
Bit depth : 16 bits
Compression mode : Lossy
Stream size : 541 MiB (2%)
Title : Dub [License]
Language : Russian
Service kind : Complete Main
Default : Yes
Forced : Yes

Audio #2
ID : 3
Format : DTS XLL
Format/Info : Digital Theater Systems
Commercial name : DTS-HD Master Audio
Codec ID : A_DTS
Duration : 1 h 58 min
Bit rate mode : Variable
Bit rate : 5 091 kb/s
Channel(s) : 8 channels
Channel layout : C L R LFE Lb Rb Lss Rss
Sampling rate : 48.0 kHz
Frame rate : 93.750 FPS (512 SPF)
Bit depth : 24 bits
Compression mode : Lossless
Stream size : 4.21 GiB (15%)
Title : Original
Language : English
Default : No
Forced : No

Text #1
ID : 4
Format : UTF-8
Codec ID : S_TEXT/UTF8
Codec ID/Info : UTF-8 Plain Text
Duration : 1 h 55 min
Bit rate : 68 b/s
Count of elements : 1371
Stream size : 58.1 KiB (0%)
Title : Full
Language : Russian
Default : No
Forced : No

Text #2
ID : 5
Format : UTF-8
Codec ID : S_TEXT/UTF8
Codec ID/Info : UTF-8 Plain Text
Duration : 1 h 47 min
Bit rate : 89 b/s
Count of elements : 1642
Stream size : 70.4 KiB (0%)
Title : SDH
Language : Russian
Default : No
Forced : No

Text #3
ID : 6
Format : UTF-8
Codec ID : S_TEXT/UTF8
Codec ID/Info : UTF-8 Plain Text
Duration : 1 h 46 min
Bit rate : 50 b/s
Count of elements : 1369
Stream size : 39.1 KiB (0%)
Title : Full
Language : English
Default : No
Forced : No

Menu
00:00:00.000 : en:Глава 01
00:04:50.499 : en:Глава 02
00:10:51.067 : en:Глава 03
00:17:47.692 : en:Глава 04
00:23:53.015 : en:Глава 05
00:30:00.132 : en:Глава 06
00:33:05.066 : en:Глава 07
00:37:09.310 : en:Глава 08
00:43:42.912 : en:Глава 09
00:50:47.336 : en:Глава 10
00:55:02.716 : en:Глава 11
00:59:48.460 : en:Глава 12
01:06:27.233 : en:Глава 13
01:14:32.093 : en:Глава 14
01:18:26.410 : en:Глава 15
01:23:07.900 : en:Глава 16
01:28:04.654 : en:Глава 17
01:33:10.877 : en:Глава 18
01:37:13.745 : en:Глава 19
01:44:39.190 : en:Глава 20
01:47:47.336 : en:Глава 21


pic pic pic pic pic

Этот торрент недоступен для скачивания без регистрации, однако доступен по публичной magnet-ссылке (источники с публичных трекеров). Перед использованием ссылки прочтите, пожалуйста Пользовательское соглашение, а также как можно дольше оставайтесь на раздаче! Для того, чтобы скачать сам торрент-файл (который видит больше источников), а также для того, чтобы поблагодарить релизера, вам необходимо зарегистрироваться. Если регистрироваться лень - вы можете также попробовать скачать релиз по нашим партнерским ссылкам ниже. Кроме того, зарегистрированным пользователям не показывается всплывающая реклама при скачивании.

[underver.se].t152446.torrent
Трекер: Зарегистрирован   [ 27.11.2019 07:54 ]  

Статус: проверено (by 90ytr90 at 29.11.2019 09:49)
Поблагодарили: пока никто не поблагодарил...
Тип торрента: публичный - доступные источники с открытых трекеров: 
Размер: 27,51 GB (занимает 6,28 DVDR, для записи нужно 7 болванок DVDR/RW)
 
 
Похожие темы
Форум Тема Автор Торрент Отв. Посл. сооб.
Зарубежные мультфильмы Король Лев / The Lion King (Джон Фавро / Jon Favreau) [2019 г., мультфильм, мюзикл, драма, приключения, семейный, HDRip] Dub (iTunes) + Original (Eng) + Sub (Rus, Eng) eXtatik
42 | 2

0 | 557

39

11.10.2019 06:20

Зарубежные мультфильмы Король Лев / The Lion King (Джон Фавро / Jon Favreau) [2019 г., мультфильм, мюзикл, драма, приключения, семейный, BDRip] Dub 90ytr90
2451 | 73

0 | 769

22

27.11.2019 07:47

Зарубежные мультфильмы Король Лев / The Lion King (Джон Фавро / Jon Favreau) [2019 г., мультфильм, мюзикл, драма, приключения, семейный, BDRip] Dub 90ytr90
593 | 16

0 | 723

8

27.11.2019 07:48

Зарубежные мультфильмы Король Лев / The Lion King (Джон Фавро / Jon Favreau) [2019 г., мультфильм, мюзикл, драма, приключения, семейный, BDRip-AVC] Dub + Sub (Rus, Eng) 90ytr90
42 | 3

0 | 737

12

27.11.2019 07:52

Мультфильмы [DVD / HDDVD / BD / Remux] Король Лев / The Lion King (Роджер Аллерс, Роб Минкофф / Roger Allers, Rob Minkoff) [1994, мультфильм, мюзикл, драма, приключения, семейный, Blu-ray disc 1080p] uzi2009
1 | 0

1 | 2765

11

28.11.2014 20:26

Мультфильмы [HDDVDRip / BDRip / WEB-DL / HDTV 1080/720р] Король Лев (Роджер Эллерс, Роб Минкофф) [1994 г., анимация, приключения, семейный, HDTV-Rip 720p] Saggitarius
7 | 0

1 | 3063

92

26.07.2009 17:47

T Мультфильмы [HDDVDRip / BDRip / WEB-DL / HDTV 1080/720р] Король Лев / The Lion King (Джон Фавро) [2019 г., мультфильм, мюзикл, драма, приключения, семейный, WEB-DL 1080p] Dub (iTunes) + Original (Eng) + Sub (Rus, Eng) eXtatik
356 | 8

1 | 633

32

28.12.2019 13:48

# Мультфильмы [HDDVDRip / BDRip / WEB-DL / HDTV 1080/720р] Король Лев / The Lion King ( Джон Фавро) [2019, Мультфильм, мюзикл, драма, приключения, семейный, ремейк, BDRip-HEVC 1080p] [iTunes,Rus+ENG]+[Subs Rus+ENG] Nikolai.Baranov
1 | 1

1 | 493

17

29.11.2019 10:03

Мультфильмы [HDDVDRip / BDRip / WEB-DL / HDTV 1080/720р] Король Лев / The Lion King (Джон Фавро / Jon Favreau) [2019 г., мультфильм, мюзикл, драма, приключения, семейный, BDRip 1080p] Dub + Original (Eng) + Sub (Rus, Eng) 90ytr90
168 | 6

0 | 761

6

27.11.2019 07:49

Мультфильмы [HDDVDRip / BDRip / WEB-DL / HDTV 1080/720р] Король Лев / The Lion King (Джон Фавро / Jon Favreau) [2019 г., мультфильм, мюзикл, драма, приключения, семейный, BDRip 720p] Dub + Original (Eng) + Sub (Rus, Eng) 90ytr90
339 | 31

0 | 730

1

27.11.2019 07:50


Яндекс.Метрика powered by Sphinx


В Н И М А Н И Е
Сайт не распространяет и не хранит электронные версии произведений, а лишь бесплатно и без коммерческой выгоды (не требуя взамен платы,
SMS и т.д.) предоставляет доступ к создаваемому пользователями каталогу ссылок на торрент-файлы, которые содержат только списки хеш-сумм.
Убедительная просьба с жалобами обращаться напрямую к пользователю, разместившему торрент файл.

Вверх