Loading...
Error

Doom: Аннигиляция/ Doom: Annihilation (Тони Гиглио / Tony Giglio) [2019 г., ужасы, фантастика, боевик, BDRip 1080p] MVO (Mallorn Studio) + Original (Eng) + Sub (Eng)

Статистика раздачи
Размер:  7,83 GB   |    Зарегистрирован:  4 месяца 6 дней   |    Скачан:  12 раз

Полного источника не было: 7 дней

Сидов:  0  |  0 KB/s  ]   Личеров:  1  |  0 KB/s  ]

* - сиды/пиры с внешних источников

   
 
Автор Сообщение

90ytr90 

17-Окт-2019 07:08

Doom: Аннигиляция/ Doom: Annihilation
«Your Mission: Don't Die»

Страна: США
Год выпуска: 2019
Жанр: ужасы, фантастика, боевик
Продолжительность: 01:36:39
Озвучивание:
  • любительское (многоголосое закадровое) [Mallorn Studio]
  • оригинальная звуковая дорожка [английский]

Режиссёр: Тони Гиглио / Tony Giglio

В ролях:
Эми Мэнсон, Луис Мэндилор, Нина Бергман, Кейт Николс, Лорина Камбурова, Доминик Мафэм, Люк Аллен-Гейл, Хари Диллон, Амер Чадха-Патель, Джемма Мур


Сюжет фильма:
Отряд морпехов прибывает на научную базу на одной из марсианских лун, где обнаруживают, что местные учёные открыли портал в ад, а по коридорам бродят разнообразные монстры.

  • Дата мировой премьеры: 1 октября 2019
             
Качество видео: BDRip 1080p
Исходник: Doom.Annihilation.2019.1080p.BluRay.x264-ROVERS
Формат: MKV
Видео: AVC, 1920x1080 (16:9), 9823 kbps, 23.976 (24000/1001) fps, 0.198 bit/pixel
Аудио #1: AC3, 256 kbps, 2 ch, 48 kHz, MVO [Mallorn Studio]
Аудио #2: DTS, 1509 kbps, 6 ch, 48 kHz, Original [English]
Субтитры: English
Навигация по главам: есть (20)
General 
Unique ID : 221883405911181880317971625859430081074 (0xA6ED30870CC3826C846471DB77BDE232)
Complete name : Doom.Annihilation.2019.BDRip.1080p.mkv
Format : Matroska
Format version : Version 4
File size : 7.83 GiB
Duration : 1 h 36 min
Overall bit rate : 11.6 Mb/s
Encoded date : UTC 2019-10-16 16:12:21
Writing application : mkvmerge v7.1.0 ('Good Love') 64bit built on Jul 27 2014 13:06:55
Writing library : libebml v1.3.0 + libmatroska v1.4.1

Video
ID : 1
Format : AVC
Format/Info : Advanced Video Codec
Format profile : High@L4.1
Format settings : CABAC / 4 Ref Frames
Format settings, CABAC : Yes
Format settings, Reference fra : 4 frames
Codec ID : V_MPEG4/ISO/AVC
Duration : 1 h 36 min
Bit rate : 9 823 kb/s
Width : 1 920 pixels
Height : 1 080 pixels
Display aspect ratio : 16:9
Frame rate mode : Constant
Frame rate : 23.976 (24000/1001) FPS
Color space : YUV
Chroma subsampling : 4:2:0
Bit depth : 8 bits
Scan type : Progressive
Bits/(Pixel*Frame) : 0.198
Stream size : 6.63 GiB (85%)
Writing library : x264 core 158 r2984 3759fcb
Encoding settings : cabac=1 / ref=4 / deblock=1:-3:-3 / analyse=0x3:0x133 / me=umh / subme=8 / psy=1 / psy_rd=1.00:0.00 / mixed_ref=1 / me_range=16 / chroma_me=1 / trellis=1 / 8x8dct=1 / cqm=0 / deadzone=21,11 / fast_pskip=0 / chroma_qp_offset=-2 / threads=30 / lookahead_threads=5 / sliced_threads=0 / nr=0 / decimate=1 / interlaced=0 / bluray_compat=0 / constrained_intra=0 / bframes=3 / b_pyramid=2 / b_adapt=1 / b_bias=0 / direct=3 / weightb=1 / open_gop=0 / weightp=2 / keyint=250 / keyint_min=23 / scenecut=40 / intra_refresh=0 / rc_lookahead=50 / rc=2pass / mbtree=1 / bitrate=9823 / ratetol=1.0 / qcomp=0.60 / qpmin=0 / qpmax=69 / qpstep=4 / cplxblur=20.0 / qblur=0.5 / vbv_maxrate=62500 / vbv_bufsize=78125 / nal_hrd=none / filler=0 / ip_ratio=1.40 / aq=1:1.00
Language : English
Default : Yes
Forced : No

Audio #1
ID : 2
Format : AC-3
Format/Info : Audio Coding 3
Commercial name : Dolby Digital
Codec ID : A_AC3
Duration : 1 h 36 min
Bit rate mode : Constant
Bit rate : 256 kb/s
Channel(s) : 2 channels
Channel layout : L R
Sampling rate : 48.0 kHz
Frame rate : 31.250 FPS (1536 SPF)
Bit depth : 16 bits
Compression mode : Lossy
Stream size : 177 MiB (2%)
Title : Mallorn
Language : Russian
Service kind : Complete Main
Default : Yes
Forced : No

Audio #2
ID : 3
Format : DTS
Format/Info : Digital Theater Systems
Codec ID : A_DTS
Duration : 1 h 36 min
Bit rate mode : Constant
Bit rate : 1 509 kb/s
Channel(s) : 6 channels
Channel layout : C L R Ls Rs LFE
Sampling rate : 48.0 kHz
Frame rate : 93.750 FPS (512 SPF)
Bit depth : 24 bits
Compression mode : Lossy
Stream size : 1.02 GiB (13%)
Language : English
Default : No
Forced : No

Text
ID : 4
Format : UTF-8
Codec ID : S_TEXT/UTF8
Codec ID/Info : UTF-8 Plain Text
Duration : 1 h 31 min
Bit rate : 52 b/s
Count of elements : 1166
Stream size : 35.5 KiB (0%)
Language : English
Default : No
Forced : No

Menu
00:00:00.000 : en:00:00:00.000
00:04:47.037 : en:00:04:47.037
00:11:39.073 : en:00:11:39.073
00:17:51.195 : en:00:17:51.195
00:21:43.594 : en:00:21:43.594
00:25:43.792 : en:00:25:43.792
00:29:18.674 : en:00:29:18.674
00:34:06.836 : en:00:34:06.836
00:39:14.018 : en:00:39:14.018
00:45:43.908 : en:00:45:43.908
00:49:57.661 : en:00:49:57.661
00:54:35.230 : en:00:54:35.230
01:00:09.981 : en:01:00:09.981
01:04:59.562 : en:01:04:59.562
01:11:41.631 : en:01:11:41.631
01:16:43.140 : en:01:16:43.140
01:21:27.216 : en:01:21:27.216
01:25:45.640 : en:01:25:45.640
01:31:38.618 : en:01:31:38.618
01:33:37.695 : en:01:33:37.695


pic pic pic pic pic pic pic pic pic pic

Этот торрент недоступен для скачивания без регистрации, однако доступен по публичной magnet-ссылке (источники с публичных трекеров). Перед использованием ссылки прочтите, пожалуйста Пользовательское соглашение, а также как можно дольше оставайтесь на раздаче! Для того, чтобы скачать сам торрент-файл (который видит больше источников), а также для того, чтобы поблагодарить релизера, вам необходимо зарегистрироваться. Если регистрироваться лень - вы можете также попробовать скачать релиз по нашим партнерским ссылкам ниже. Кроме того, зарегистрированным пользователям не показывается всплывающая реклама при скачивании.

[underver.se].t147262.torrent
Трекер: Зарегистрирован   [ 17.10.2019 07:08 ]  

Статус: T временная (by eXtatik at 17.10.2019 08:03)
Поблагодарили: пока никто не поблагодарил...
Тип торрента: публичный - доступные источники с открытых трекеров: 
Размер: 7,83 GB (занимает 1,79 DVDR, для записи нужно 2 болванки DVDR/RW)
 
 
Похожие темы
Форум Тема Автор Торрент Отв. Посл. сооб.
Зарубежное кино [DVDRip, Low-Res HDRip, и т.д.] Doom: Аннигиляция/ Doom: Annihilation (Тони Гиглио / Tony Giglio) [2019 г., ужасы, фантастика, боевик, BDRip] MVO (@MUZOBOZ@) + Original (Eng) 90ytr90
75 | 0

0 | 429

43

03.10.2019 18:47

T Зарубежное кино [HDDVDRip / BDRip / WEB-DL / HDTV 1080/720р] Doom: Аннигиляция/ Doom: Annihilation (Тони Гиглио / Tony Giglio) [2019 г., ужасы, фантастика, боевик, BDRip 720p] MVO (@MUZOBOZ@) 90ytr90
33 | 0

0 | 462

26

25.09.2019 12:03

T Зарубежное кино [HDDVDRip / BDRip / WEB-DL / HDTV 1080/720р] Doom: Аннигиляция/ Doom: Annihilation (Тони Гиглио / Tony Giglio) [2019 г., ужасы, фантастика, боевик, BDRip 1080p] MVO (@MUZOBOZ@) 90ytr90
22 | 1

0 | 655

45

25.09.2019 12:03

T Зарубежное кино [HDDVDRip / BDRip / WEB-DL / HDTV 1080/720р] Doom: Аннигиляция/ Doom: Annihilation (Тони Гиглио / Tony Giglio) [2019 г., ужасы, фантастика, боевик, BDRip 1080p] MVO (@MUZOBOZ@) + Original (Eng) 90ytr90
34 | 1

0 | 328

17

06.10.2019 19:49


Яндекс.Метрика powered by Sphinx


В Н И М А Н И Е
Сайт не распространяет и не хранит электронные версии произведений, а лишь бесплатно и без коммерческой выгоды (не требуя взамен платы,
SMS и т.д.) предоставляет доступ к создаваемому пользователями каталогу ссылок на торрент-файлы, которые содержат только списки хеш-сумм.
Убедительная просьба с жалобами обращаться напрямую к пользователю, разместившему торрент файл.

Вверх