Loading...
Error

Король Лев / The Lion King ( Джон Фавро) [2019, Мультфильм, мюзикл, драма, приключения, семейный, ремейк,BluRay 1080р] [iTunes,Rus+ENG]+[Subs Rus+ENG]

Статистика раздачи
Размер:  23,24 GB   |    Зарегистрирован:  4 месяца 10 дней   |    Скачан:  7 раз

Полного источника не было: 1 месяц 4 дня

Сидов:  0  |  0 KB/s  ]   Личеров:  0  |  0 KB/s  ]

* - сиды/пиры с внешних источников

   
 
Автор Сообщение

Nikolai.Baranov Пол:Муж

13-Окт-2019 07:09



Король Лев / The Lion King



Год выпуска: 2019
Выпущено: США , Walt Disney Pictures, Fairview Entertainment
Жанр: Мультфильм, мюзикл, драма, приключения, семейный, ремейк
Продолжительность: 01:58:14

Озвучка #1: Дублированный - Русский (DUB, iTunes)

Озвучка #2: Профессиональный многоголосый -Английский - Оригинал

Субтитры: Русские ,English, English SDH


Релиз Без Рекламы

MDB 7.1

Режиссеры:
Джон Фавро

В ролях: Джеймс Эрл Джонс, Дональд Гловер, Чиветел Эджиофор, Джон Оливер, Джон Кани, Элфри Вудард, Джейдон Маккрэри, Шахади Райт Джозеф, Пенни Джонсон, Кигэн-Майкл Ки

История об отважном львенке по имени Симба. Знакомые с детства герои взрослеют, влюбляются, познают себя и окружающий мир, совершают ошибки и делают правильный выбор.



Качество : BluRay - 1080p
Формат:MKV
Видео кодек: H264
Видео: 19,9Мбит/сек,1920х1080(16.9),в 23.976кадр/сек,AVC (High@L4.1)(CABAC/4 Ref Frames)

Аудио Кодек:Аудио Кодек: AC3 - DTS

Аудио #1: Dub -Rus-iTunes @DD5.1 AC3, 384 Kbps, 48.0 KHz, 6 ch - Русский (DUB, iTunes)

Аудио #2:Dub -Rus-iTunes @DD5.1 DTS, 3840 Kbps, 48.0 KHz, 6 ch - Русский (DUB, iTunes )

Аудио #3: Original@DD5.1 AC3 ,640 Kbps, 48.0 KHz, 6 ch - - English

Аудио #4: Original@TrueHD DTS ,4929 Kbps, 48.0 KHz, 8 ch - - English

Звуковая дорожка сделана путем наложения чистого голоса озвучивателей на центральный канал оригинальной дорожки. Качество идентично звуковой дорожке.


Общее
Уникальный идентификатор : 293390532469319019723174786491307182938 (0xDCB8F6106EAE430FB8D14F7E3232CB5A)
Полное имя : C:\RussianPatriot\Король Лев - The Lion King\The.Lion.King.2019_Н264_DD5.1_N.B_BluRay_1080_Rus_Eng\The.Lion.King.2019_Н264_DD5.1_N.B_BluRay_1080_Rus_Eng.mkv
Формат : Matroska
Версия формата : Version 4
Размер файла : 23,0 Гбайт
Продолжительность : 1 ч. 58 м.
Режим общего битрейта : Переменный
Общий поток : 27,9 Мбит/сек
Название фильма : The Lion King 2019 @ Nikolai.Baranov & PIRATIYA
Дата кодирования : UTC 2019-10-12 16:19:09
Программа кодирования : mkvmerge v38.0.0 ('The Silent Type') 64-bit
Библиотека кодирования : libebml v1.3.9 + libmatroska v1.5.2 / Lavf58.20.100
Обложка : Yes
Attachments : small_cover.jpg / small_cover_land.jpg / cover.jpg / cover_land.jpg / small_cover.jpg / small_cover_land.jpg / cover.jpg / cover_land.jpg

Видео
Идентификатор : 1
Формат : AVC
Формат/Информация : Advanced Video Codec
Профиль формата : High@L4.1
Настройки формата : CABAC / 4 Ref Frames
Параметр CABAC формата : Да
Параметр RefFrames формата : 4 кадра
Идентификатор кодека : V_MPEG4/ISO/AVC
Продолжительность : 1 ч. 58 м.
Битрейт : 17,9 Мбит/сек
Ширина : 1920 пикселей
Высота : 1080 пикселей
Соотношение сторон : 16:9
Режим частоты кадров : Постоянный
Частота кадров : 23,976 (24000/1001) кадра/сек
Цветовое пространство : YUV
Субдискретизация насыщенности : 4:2:0
Битовая глубина : 8 бит
Тип развёртки : Прогрессивная
Бит/(Пиксели*Кадры) : 0.360
Размер потока : 14,8 Гбайт (64%)
Заголовок : The.Lion.King.2019_Н264_DD5.1_N.B_BluRay_1080_Rus_Eng
Библиотека кодирования : x264 core 157 r2938 2b00a84 TnP@MTeam Mod
Настройки программы : cabac=1 / ref=4 / deblock=1:-3:-3 / analyse=0x3:0x133 / me=umh / subme=10 / psy=1 / psy_rd=1.05:0.00 / mixed_ref=1 / me_range=32 / chroma_me=1 / trellis=2 / 8x8dct=1 / cqm=0 / deadzone=21,11 / fast_pskip=0 / chroma_qp_offset=-2 / threads=12 / lookahead_threads=2 / sliced_threads=0 / nr=0 / decimate=0 / interlaced=0 / bluray_compat=0 / constrained_intra=0 / bframes=8 / b_pyramid=2 / b_adapt=2 / b_bias=0 / direct=3 / weightb=1 / open_gop=0 / weightp=2 / keyint=250 / keyint_min=24 / scenecut=40 / intra_refresh=0 / rc_lookahead=250 / rc=crf / mbtree=0 / crf=16.1 / qcomp=0.60 / qpmin=0 / qpmax=69 / qpstep=4 / vbv_maxrate=62500 / vbv_bufsize=78125 / crf_max=0.0 / nal_hrd=none / filler=0 / ip_ratio=1.30 / pb_ratio=1.20 / aq=3:0.80
Язык : Russian
Default : Да
Forced : Нет
Цветовой диапазон : Limited
Основные цвета : BT.709
Коэффициенты матрицы : BT.709

Аудио #1
Идентификатор : 2
Формат : AC-3
Формат/Информация : Audio Coding 3
Коммерческое название : Dolby Digital
Идентификатор кодека : A_AC3
Продолжительность : 1 ч. 58 м.
Вид битрейта : Постоянный
Битрейт : 384 Кбит/сек
Каналы : 6 каналов
ChannelLayout : L R C LFE Ls Rs
Частота : 48,0 КГц
Частота кадров : 31,250 кадров/сек (1536 SPF)
Метод сжатия : С потерями
Размер потока : 325 Мбайт (1%)
Заголовок : Dub -Rus-iTunes @DD5.1 AC3, 384 Kbps, 48.0 KHz, 6 ch
Язык : Russian
ServiceKind/String : Complete Main
Default : Да
Forced : Нет

Аудио #2
Идентификатор : 3
Формат : DTS
Формат/Информация : Digital Theater Systems
Идентификатор кодека : A_DTS
Продолжительность : 1 ч. 58 м.
Вид битрейта : Постоянный
Битрейт : 3968 Кбит/сек
Каналы : 6 каналов
ChannelLayout : C L R Ls Rs LFE
Частота : 48,0 КГц
Частота кадров : 46,875 кадров/сек (1024 SPF)
Битовая глубина : 16 бит
Метод сжатия : С потерями
Задержка видео : -83 мс.
Размер потока : 3,28 Гбайт (14%)
Заголовок : Dub -Rus-iTunes @DD5.1 DTS, 3840 Kbps, 48.0 KHz, 6 ch
Язык : Russian
Default : Нет
Forced : Нет

Аудио #3
Идентификатор : 6
Формат : AC-3
Формат/Информация : Audio Coding 3
Коммерческое название : Dolby Digital
Идентификатор кодека : A_AC3
Продолжительность : 1 ч. 58 м.
Вид битрейта : Постоянный
Битрейт : 640 Кбит/сек
Каналы : 6 каналов
ChannelLayout : L R C LFE Ls Rs
Частота : 48,0 КГц
Частота кадров : 31,250 кадров/сек (1536 SPF)
Метод сжатия : С потерями
Задержка видео : -83 мс.
Размер потока : 541 Мбайт (2%)
Заголовок : Original@DD5.1 AC3 ,640 Kbps, 48.0 KHz, 6 ch
Язык : English
ServiceKind/String : Complete Main
Default : Нет
Forced : Нет

Аудио #4
Идентификатор : 7
Формат : MLP FBA 16-ch
Формат/Информация : Meridian Lossless Packing FBA with 16-channel presentation
Коммерческое название : Dolby TrueHD with Dolby Atmos
Идентификатор кодека : A_TRUEHD
Продолжительность : 1 ч. 58 м.
Вид битрейта : Переменный
Битрейт : 4929 Кбит/сек
Максимальный битрейт : 7332 Кбит/сек
Каналы : 8 каналов
ChannelLayout : L R C LFE Ls Rs Lb Rb
Частота : 48,0 КГц
Частота кадров : 1200,000 кадров/сек (40 SPF)
Метод сжатия : Без потерь
Задержка видео : -83 мс.
Размер потока : 4,07 Гбайт (18%)
Заголовок : Original@TrueHD DTS ,4929 Kbps, 48.0 KHz, 8 ch
Язык : English
Default : Нет
Forced : Нет
NumberOfDynamicObjects : 13
BedChannelCount/String : 1 канал
BedChannelConfiguration : LFE

Текст #1
Идентификатор : 4
Формат : UTF-8
Идентификатор кодека : S_TEXT/UTF8
Идентификатор кодека/Информация : UTF-8 Plain Text
Продолжительность : 1 ч. 55 м.
Битрейт : 68 бит/сек
ElementCount : 1371
Размер потока : 58,1 Кбайт (0%)
Заголовок : Russian-Forced
Язык : Russian
Default : Да
Forced : Нет

Текст #2
Идентификатор : 5
Формат : UTF-8
Идентификатор кодека : S_TEXT/UTF8
Идентификатор кодека/Информация : UTF-8 Plain Text
Продолжительность : 1 ч. 47 м.
Битрейт : 89 бит/сек
ElementCount : 1642
Размер потока : 70,4 Кбайт (0%)
Заголовок : Russian-SDH
Язык : Russian
Default : Нет
Forced : Нет

Текст #3
Идентификатор : 8
Формат : PGS
Режим смешивания : zlib
Идентификатор кодека : S_HDMV/PGS
Идентификатор кодека/Информация : Picture based subtitle format used on BDs/HD-DVDs
Продолжительность : 1 ч. 52 м.
Битрейт : 37,3 Кбит/сек
ElementCount : 3420
Размер потока : 29,8 Мбайт (0%)
Заголовок : Original - SDH
Язык : English
Default : Нет
Forced : Нет

Текст #4
Идентификатор : 9
Формат : UTF-8
Идентификатор кодека : S_TEXT/UTF8
Идентификатор кодека/Информация : UTF-8 Plain Text
Продолжительность : 1 ч. 52 м.
Битрейт : 55 бит/сек
ElementCount : 1738
Размер потока : 45,1 Кбайт (0%)
Заголовок : Original - SDH
Язык : English
Default : Нет
Forced : Нет

Текст #5
Идентификатор : 10
Формат : UTF-8
Идентификатор кодека : S_TEXT/UTF8
Идентификатор кодека/Информация : UTF-8 Plain Text
Продолжительность : 1 ч. 50 м.
Битрейт : 49 бит/сек
ElementCount : 1547
Размер потока : 40,0 Кбайт (0%)
Заголовок : Original
Язык : English
Default : Нет
Forced : Нет

Меню
00:00:00.000 : en:Chapter 01
00:04:50.499 : en:Chapter 02
00:10:51.067 : en:Chapter 03
00:17:47.692 : en:Chapter 04
00:23:53.015 : en:Chapter 05
00:30:00.132 : en:Chapter 06
00:33:05.066 : en:Chapter 07
00:37:09.310 : en:Chapter 08
00:43:42.912 : en:Chapter 09
00:50:47.336 : en:Chapter 10
00:55:02.716 : en:Chapter 11
00:59:48.460 : en:Chapter 12
01:06:27.233 : en:Chapter 13
01:14:32.093 : en:Chapter 14
01:18:26.410 : en:Chapter 15
01:23:07.900 : en:Chapter 16
01:28:04.654 : en:Chapter 17
01:33:10.877 : en:Chapter 18
01:37:13.745 : en:Chapter 19
01:44:39.190 : en:Chapter 20
01:47:47.336 : en:Chapter 21










Релиз от: Nikolai.Baranov & PIRATIYA . Поблагодарить:
ЯД: 410017546713876








Время раздачи : 24/7

Этот торрент недоступен для скачивания без регистрации, однако доступен по публичной magnet-ссылке (источники с публичных трекеров). Перед использованием ссылки прочтите, пожалуйста Пользовательское соглашение, а также как можно дольше оставайтесь на раздаче! Для того, чтобы скачать сам торрент-файл (который видит больше источников), а также для того, чтобы поблагодарить релизера, вам необходимо зарегистрироваться. Если регистрироваться лень - вы можете также попробовать скачать релиз по нашим партнерским ссылкам ниже. Кроме того, зарегистрированным пользователям не показывается всплывающая реклама при скачивании.

[underver.se].t147016.torrent
Трекер: Зарегистрирован   [ 13.10.2019 07:09 ]  

Статус: поглощено (by 90ytr90 at 29.11.2019 09:58)
Поблагодарили: пока никто не поблагодарил...
Тип торрента: публичный - доступные источники с открытых трекеров: 
Размер: 23,24 GB (занимает 5,31 DVDR, для записи нужно 6 болванок DVDR/RW)
 
 
Похожие темы
Форум Тема Автор Торрент Отв. Посл. сооб.
Зарубежные мультфильмы Король Лев / The Lion King (Джон Фавро / Jon Favreau) [2019 г., мультфильм, мюзикл, драма, приключения, семейный, HDRip] Dub (iTunes) + Original (Eng) + Sub (Rus, Eng) eXtatik
42 | 2

0 | 557

39

11.10.2019 06:20

Зарубежные мультфильмы Король Лев / The Lion King (Джон Фавро / Jon Favreau) [2019 г., мультфильм, мюзикл, драма, приключения, семейный, BDRip] Dub 90ytr90
2451 | 73

0 | 769

22

27.11.2019 07:47

Зарубежные мультфильмы Король Лев / The Lion King (Джон Фавро / Jon Favreau) [2019 г., мультфильм, мюзикл, драма, приключения, семейный, BDRip] Dub 90ytr90
593 | 16

0 | 723

8

27.11.2019 07:48

Зарубежные мультфильмы Король Лев / The Lion King (Джон Фавро / Jon Favreau) [2019 г., мультфильм, мюзикл, драма, приключения, семейный, BDRip-AVC] Dub + Sub (Rus, Eng) 90ytr90
42 | 3

0 | 737

12

27.11.2019 07:52

Мультфильмы [DVD / HDDVD / BD / Remux] Король Лев / The Lion King (Роджер Аллерс, Роб Минкофф / Roger Allers, Rob Minkoff) [1994, мультфильм, мюзикл, драма, приключения, семейный, Blu-ray disc 1080p] uzi2009
1 | 0

1 | 2765

11

28.11.2014 20:26

Мультфильмы [DVD / HDDVD / BD / Remux] Король Лев / The Lion King (Джон Фавро / Jon Favreau) [2019 г., мультфильм, мюзикл, драма, приключения, семейный, BDRemux 1080p] Dub + Original (Eng) + Sub (Rus, Eng) 90ytr90
18 | 1

0 | 811

9

27.11.2019 07:54

Мультфильмы [HDDVDRip / BDRip / WEB-DL / HDTV 1080/720р] Король Лев (Роджер Эллерс, Роб Минкофф) [1994 г., анимация, приключения, семейный, HDTV-Rip 720p] Saggitarius
7 | 0

1 | 3063

92

26.07.2009 17:47

T Мультфильмы [HDDVDRip / BDRip / WEB-DL / HDTV 1080/720р] Король Лев / The Lion King (Джон Фавро) [2019 г., мультфильм, мюзикл, драма, приключения, семейный, WEB-DL 1080p] Dub (iTunes) + Original (Eng) + Sub (Rus, Eng) eXtatik
356 | 8

1 | 633

32

28.12.2019 13:48

# Мультфильмы [HDDVDRip / BDRip / WEB-DL / HDTV 1080/720р] Король Лев / The Lion King ( Джон Фавро) [2019, Мультфильм, мюзикл, драма, приключения, семейный, ремейк, BDRip-HEVC 1080p] [iTunes,Rus+ENG]+[Subs Rus+ENG] Nikolai.Baranov
1 | 1

1 | 493

17

29.11.2019 10:03

Мультфильмы [HDDVDRip / BDRip / WEB-DL / HDTV 1080/720р] Король Лев / The Lion King (Джон Фавро / Jon Favreau) [2019 г., мультфильм, мюзикл, драма, приключения, семейный, BDRip 1080p] Dub + Original (Eng) + Sub (Rus, Eng) 90ytr90
168 | 6

0 | 761

6

27.11.2019 07:49

29-Ноя-2019 09:58

Топик был перенесен из форума Мультфильмы [DVD / HDDVD / BD / Remux] в форум Для поглощенных раздач

Причина переноса: https://underverse.su/viewtopic.php?t=150001
90ytr90
 

Яндекс.Метрика powered by Sphinx


В Н И М А Н И Е
Сайт не распространяет и не хранит электронные версии произведений, а лишь бесплатно и без коммерческой выгоды (не требуя взамен платы,
SMS и т.д.) предоставляет доступ к создаваемому пользователями каталогу ссылок на торрент-файлы, которые содержат только списки хеш-сумм.
Убедительная просьба с жалобами обращаться напрямую к пользователю, разместившему торрент файл.

Вверх