Loading...
Error

Doom: Аннигиляция/ Doom: Annihilation (Тони Гиглио / Tony Giglio) [2019 г., ужасы, фантастика, боевик, BDRip 1080p] MVO (@MUZOBOZ@) + Original (Eng)

Статистика раздачи
Размер:  7,07 GB   |    Зарегистрирован:  4 месяца 19 дней   |    Скачан:  17 раз

Полного источника не было: 3 дня

Сидов:  0  |  0 KB/s  ]   Личеров:  0  |  0 KB/s  ]

* - сиды/пиры с внешних источников

   
 
Автор Сообщение

90ytr90 

06-Окт-2019 19:49

Doom: Аннигиляция/ Doom: Annihilation
«Your Mission: Don't Die»

Страна: США
Год выпуска: 2019
Жанр: ужасы, фантастика, боевик
Продолжительность: 01:36:39
Озвучивание:
  • любительское (многоголосое закадровое) [@MUZOBOZ@]
  • оригинальная звуковая дорожка [английский]

Режиссёр: Тони Гиглио / Tony Giglio

В ролях:
Эми Мэнсон, Луис Мэндилор, Нина Бергман, Кейт Николс, Лорина Камбурова, Доминик Мафэм, Люк Аллен-Гейл, Хари Диллон, Амер Чадха-Патель, Джемма Мур


Сюжет фильма:
Отряд морпехов прибывает на научную базу на одной из марсианских лун, где обнаруживают, что местные учёные открыли портал в ад, а по коридорам бродят разнообразные монстры.

  • Дата мировой премьеры: 1 октября 2019
             
Качество видео: BDRip 1080p
Формат: MKV
Видео: AVC, 1920x1080 (16:9), 9823 kbps, 23.976 (24000/1001) fps, 0.198 bit/pixel
Аудио #1: AC3, 192 kbps, 2 ch, 48 kHz, MVO [@MUZOBOZ@]
Аудио #2: AC3, 448 kbps, 6 ch, 48 kHz, Original [English]
Навигация по главам: есть (20)
Общее 
Уникальный идентификатор : 239329106971436698606998214266550351301 (0xB40D1BFF8A22182C983C17E01A6DF5C5)
Полное имя : D:NNMDoomDoom.Annihilation.2019.BDRip.1080p.mkv
Формат : Matroska
Версия формата : Version 4
Размер файла : 7,07 Гбайт
Продолжительность : 1 ч. 36 м.
Общий поток : 10,5 Мбит/сек
Дата кодирования : UTC 2019-09-29 06:24:36
Программа кодирования : mkvmerge v9.2.0 ('Photograph') 64bit
Библиотека кодирования : libebml v1.3.3 + libmatroska v1.4.4

Видео
Идентификатор : 1
Формат : AVC
Формат/Информация : Advanced Video Codec
Профиль формата : High@L4.1
Настройки формата : CABAC / 4 Ref Frames
Параметр CABAC формата : Да
Параметр RefFrames формата : 4 кадра
Идентификатор кодека : V_MPEG4/ISO/AVC
Продолжительность : 1 ч. 36 м.
Битрейт : 9823 Кбит/сек
Ширина : 1920 пикселей
Высота : 1080 пикселей
Соотношение сторон : 16:9
Режим частоты кадров : Постоянный
Частота кадров : 23,976 (24000/1001) кадра/сек
Цветовое пространство : YUV
Субдискретизация насыщенности : 4:2:0
Битовая глубина : 8 бит
Тип развёртки : Прогрессивная
Бит/(Пиксели*Кадры) : 0.198
Размер потока : 6,63 Гбайт (94%)
Библиотека кодирования : x264 core 158 r2984 3759fcb
Настройки программы : cabac=1 / ref=4 / deblock=1:-3:-3 / analyse=0x3:0x133 / me=umh / subme=8 / psy=1 / psy_rd=1.00:0.00 / mixed_ref=1 / me_range=16 / chroma_me=1 / trellis=1 / 8x8dct=1 / cqm=0 / deadzone=21,11 / fast_pskip=0 / chroma_qp_offset=-2 / threads=30 / lookahead_threads=5 / sliced_threads=0 / nr=0 / decimate=1 / interlaced=0 / bluray_compat=0 / constrained_intra=0 / bframes=3 / b_pyramid=2 / b_adapt=1 / b_bias=0 / direct=3 / weightb=1 / open_gop=0 / weightp=2 / keyint=250 / keyint_min=23 / scenecut=40 / intra_refresh=0 / rc_lookahead=50 / rc=2pass / mbtree=1 / bitrate=9823 / ratetol=1.0 / qcomp=0.60 / qpmin=0 / qpmax=69 / qpstep=4 / cplxblur=20.0 / qblur=0.5 / vbv_maxrate=62500 / vbv_bufsize=78125 / nal_hrd=none / filler=0 / ip_ratio=1.40 / aq=1:1.00
Язык : English
Default : Да
Forced : Нет

Аудио #1
Идентификатор : 2
Формат : AC-3
Формат/Информация : Audio Coding 3
Коммерческое название : Dolby Digital
Идентификатор кодека : A_AC3
Продолжительность : 1 ч. 36 м.
Вид битрейта : Постоянный
Битрейт : 192 Кбит/сек
Каналы : 2 канала
ChannelLayout : L R
Частота : 48,0 КГц
Частота кадров : 31,250 кадров/сек (1536 SPF)
Битовая глубина : 16 бит
Метод сжатия : С потерями
Размер потока : 133 Мбайт (2%)
Язык : Russian
ServiceKind : Complete Main
Default : Да
Forced : Нет

Аудио #2
Идентификатор : 3
Формат : AC-3
Формат/Информация : Audio Coding 3
Коммерческое название : Dolby Digital
Идентификатор кодека : A_AC3
Продолжительность : 1 ч. 36 м.
Вид битрейта : Постоянный
Битрейт : 448 Кбит/сек
Каналы : 6 каналов
ChannelLayout : L R C LFE Ls Rs
Частота : 48,0 КГц
Частота кадров : 31,250 кадров/сек (1536 SPF)
Битовая глубина : 16 бит
Метод сжатия : С потерями
Размер потока : 310 Мбайт (4%)
Язык : English
ServiceKind : Complete Main
Default : Нет
Forced : Нет

Меню
00:00:00.000 : en:00:00:00.000
00:04:47.037 : en:00:04:47.037
00:11:39.073 : en:00:11:39.073
00:17:51.195 : en:00:17:51.195
00:21:43.594 : en:00:21:43.594
00:25:43.792 : en:00:25:43.792
00:29:18.674 : en:00:29:18.674
00:34:06.836 : en:00:34:06.836
00:39:14.018 : en:00:39:14.018
00:45:43.908 : en:00:45:43.908
00:49:57.661 : en:00:49:57.661
00:54:35.230 : en:00:54:35.230
01:00:09.981 : en:01:00:09.981
01:04:59.562 : en:01:04:59.562
01:11:41.631 : en:01:11:41.631
01:16:43.140 : en:01:16:43.140
01:21:27.216 : en:01:21:27.216
01:25:45.640 : en:01:25:45.640
01:31:38.618 : en:01:31:38.618
01:33:37.695 : en:01:33:37.695


pic pic pic pic

Этот торрент недоступен для скачивания без регистрации, однако доступен по публичной magnet-ссылке (источники с публичных трекеров). Перед использованием ссылки прочтите, пожалуйста Пользовательское соглашение, а также как можно дольше оставайтесь на раздаче! Для того, чтобы скачать сам торрент-файл (который видит больше источников), а также для того, чтобы поблагодарить релизера, вам необходимо зарегистрироваться. Если регистрироваться лень - вы можете также попробовать скачать релиз по нашим партнерским ссылкам ниже. Кроме того, зарегистрированным пользователям не показывается всплывающая реклама при скачивании.

[underver.se].t146314.torrent
Трекер: Зарегистрирован   [ 06.10.2019 19:49 ]  

Статус: T временная (by 90ytr90 at 17.10.2019 07:24)
Поблагодарили: 2 человека
Тип торрента: публичный - доступные источники с открытых трекеров: 
Размер: 7,07 GB (занимает 1,61 DVDR, для записи нужно 2 болванки DVDR/RW)
 
 
Похожие темы
Форум Тема Автор Торрент Отв. Посл. сооб.
Зарубежное кино [DVDRip, Low-Res HDRip, и т.д.] Doom: Аннигиляция/ Doom: Annihilation (Тони Гиглио / Tony Giglio) [2019 г., ужасы, фантастика, боевик, BDRip] MVO (@MUZOBOZ@) + Original (Eng) 90ytr90
130 | 1

0 | 432

44

03.10.2019 18:47

T Зарубежное кино [HDDVDRip / BDRip / WEB-DL / HDTV 1080/720р] Doom: Аннигиляция/ Doom: Annihilation (Тони Гиглио / Tony Giglio) [2019 г., ужасы, фантастика, боевик, BDRip 720p] MVO (@MUZOBOZ@) 90ytr90
33 | 0

0 | 464

26

25.09.2019 12:03

T Зарубежное кино [HDDVDRip / BDRip / WEB-DL / HDTV 1080/720р] Doom: Аннигиляция/ Doom: Annihilation (Тони Гиглио / Tony Giglio) [2019 г., ужасы, фантастика, боевик, BDRip 1080p] MVO (@MUZOBOZ@) 90ytr90
22 | 1

0 | 659

45

25.09.2019 12:03

T Зарубежное кино [HDDVDRip / BDRip / WEB-DL / HDTV 1080/720р] Doom: Аннигиляция/ Doom: Annihilation (Тони Гиглио / Tony Giglio) [2019 г., ужасы, фантастика, боевик, BDRip 1080p] MVO (Mallorn Studio) + Original (Eng) + Sub (Eng) 90ytr90
54 | 0

0 | 392

13

17.10.2019 07:08


Яндекс.Метрика powered by Sphinx


В Н И М А Н И Е
Сайт не распространяет и не хранит электронные версии произведений, а лишь бесплатно и без коммерческой выгоды (не требуя взамен платы,
SMS и т.д.) предоставляет доступ к создаваемому пользователями каталогу ссылок на торрент-файлы, которые содержат только списки хеш-сумм.
Убедительная просьба с жалобами обращаться напрямую к пользователю, разместившему торрент файл.

Вверх