Loading...
Error

Эбигейл (Александр Богуславский) [2019 г., приключения, фэнтези, семейный, WEB-DL 1080p] Original (iTunes)

Статистика раздачи
Размер:  3,64 GB   |    Зарегистрирован:  4 месяца 16 дней   |    Скачан:  62 раза

Полного источника не было: 47 минут

Сидов:  0  |  0 KB/s  ]   Личеров:  0  |  0 KB/s  ]

* - сиды/пиры с внешних источников

   
 
Автор Сообщение

makkol Пол:Муж

02-Окт-2019 19:51

Эбигейл
«В мире всё не то, чем кажется»


Год выпуска: 2019
Жанр: приключения, фэнтези, семейный
Производство: Россия [KD Studios]
Режиссер: Александр Богуславский
В ролях: Тинатин Далакишвили, Эдди Марсан, Артем Ткаченко, Равшана Куркова, Риналь Мухаметов, Глеб Бочков, Марта Тимофеева, Никита Тарасов, Ксения Кутепова, Петар Зекавица
Сюжет фильма:
Молодая девушка Эбигейл живет в городе, границы которого закрыли много лет назад из-за эпидемии загадочной болезни. Отец Эбби был одним из заболевших - и его забрали, когда ей было шесть лет. Пойдя наперекор властям, чтобы разыскать отца, Эбби узнает о том, что ее город на самом деле полон магии. И в ней самой пробуждаются необыкновенные магические способности...

  • Мировая премьера: 23 августа 2019
  • Российская премьера: 22 августа 2019


Качество видео: WEB-DL 1080p

Продолжительность: 01:46:16
Формат: MKV
Видео: MPEG-4 AVC, 1912x796 (2.40:1), 23.976 fps, 4522 kbps
Аудио: русский, оригинал (iTunes), AC3 5.1, 48 kHz, 384 kbps

Код:

Формат                                   : Matroska
Версия формата                           : Version 4
Размер файла                             : 3,64 Гбайт
Продолжительность                        : 1 ч. 46 м.
Общий поток                              : 4908 Кбит/сек
Дата кодирования                         : UTC 2019-10-02 18:57:28
Программа кодирования                    : mkvmerge v8.3.0 ('Over the Horizon') 64bit
Библиотека кодирования                   : libebml v1.3.1 + libmatroska v1.4.2

Видео
Идентификатор                            : 1
Формат                                   : AVC
Формат/Информация                        : Advanced Video Codec
Профиль формата                          : High@L4
Настройки формата                        : CABAC / 5 Ref Frames
Параметр CABAC формата                   : Да
Параметр RefFrames формата               : 5 кадров
Идентификатор кодека                     : V_MPEG4/ISO/AVC
Продолжительность                        : 1 ч. 46 м.
Битрейт                                  : 4522 Кбит/сек
Ширина                                   : 1912 пикселей
Высота                                   : 796 пикселей
Соотношение сторон                       : 2,40:1
Режим частоты кадров                     : Постоянный
Частота кадров                           : 23,976 (24000/1001) кадра/сек
Цветовое пространство                    : YUV
Субдискретизация насыщенности            : 4:2:0
Битовая глубина                          : 8 бит
Тип развёртки                            : Прогрессивная
Бит/(Пиксели*Кадры)                      : 0.124
Размер потока                            : 3,36 Гбайт (92%)
Язык                                     : English
Default                                  : Да
Forced                                   : Нет
Цветовой диапазон                        : Limited
Основные цвета                           : BT.709
Характеристики трансфера                 : BT.709
Коэффициенты матрицы                     : BT.709

Аудио
Идентификатор                            : 2
Формат                                   : AC-3
Формат/Информация                        : Audio Coding 3
Коммерческое название                    : Dolby Digital
Идентификатор кодека                     : A_AC3
Продолжительность                        : 1 ч. 46 м.
Вид битрейта                             : Постоянный
Битрейт                                  : 384 Кбит/сек
Каналы                                   : 6 каналов
ChannelLayout                            : L R C LFE Ls Rs
Частота                                  : 48,0 КГц
Частота кадров                           : 31,250 кадров/сек (1536 SPF)
Битовая глубина                          : 16 бит
Метод сжатия                             : С потерями
Размер потока                            : 292 Мбайт (8%)
Заголовок                                : iTunes
Язык                                     : Russian
ServiceKind/String                       : Complete Main
Default                                  : Да
Forced                                   : Нет

Меню
00:00:00.000                             : ru:1
00:03:49.000                             : ru:2
00:13:26.000                             : ru:3
00:22:22.000                             : ru:4
00:30:47.000                             : ru:5
00:39:40.000                             : ru:6
00:50:22.000                             : ru:7
01:00:15.000                             : ru:8
01:10:39.000                             : ru:9
01:21:18.000                             : ru:10
01:30:58.000                             : ru:11
01:42:38.000                             : ru:12
Релиз: NNMClub

picpicpicpicpic
Для увеличения картинки щелкните мышкой по превью

Этот торрент недоступен для скачивания без регистрации, однако доступен по публичной magnet-ссылке (источники с публичных трекеров). Перед использованием ссылки прочтите, пожалуйста Пользовательское соглашение, а также как можно дольше оставайтесь на раздаче! Для того, чтобы скачать сам торрент-файл (который видит больше источников), а также для того, чтобы поблагодарить релизера, вам необходимо зарегистрироваться. Если регистрироваться лень - вы можете также попробовать скачать релиз по нашим партнерским ссылкам ниже. Кроме того, зарегистрированным пользователям не показывается всплывающая реклама при скачивании.

[underver.se].t145960.torrent
Трекер: Зарегистрирован   [ 02.10.2019 19:51 ]  

Статус: проверено (by makkol at 02.10.2019 19:52)
Поблагодарили: пока никто не поблагодарил...
Тип торрента: публичный - доступные источники с открытых трекеров: 
Размер: 3,64 GB (занимает 0,83 DVDR, для записи нужно 1 болванка DVDR/RW)
 
 
Похожие темы
Форум Тема Автор Торрент Отв. Посл. сооб.
Наше кино [DVDRip, Low-Res HDRip, и т.д.] Эбигейл (Александр Богуславский) [2019 г., приключения, фэнтези, семейный, WEB-DLRip] Original (iTunes) makkol
26 | 0

0 | 347

16

02.10.2019 19:42

Наше кино [DVDRip, Low-Res HDRip, и т.д.] Эбигейл (Александр Богуславский) [2019 г., приключения, фэнтези, семейный, WEB-DLRip-AVC] [iTunes Version] Original (iTunes) 90ytr90
77 | 7

0 | 319

26

03.10.2019 09:09

Наше кино [DVDRip, Low-Res HDRip, и т.д.] Эбигейл (Александр Богуславский) [2019 г., приключения, фэнтези, семейный, WEB-DLRip-AVC ] Original (iTunes) eXtatik
18 | 1

0 | 424

16

06.10.2019 19:02

Наше кино [DVDRip, Low-Res HDRip, и т.д.] Эбигейл (Александр Богуславский) [2019 г., приключения, фэнтези, семейный, BDRip] Original (iTunes) 90ytr90
150 | 6

0 | 440

14

05.01.2020 21:22

Наше кино [HDDVDRip / BDRip / WEB-DL / HDTV 1080/720р] Эбигейл (Александр Богуславский) [2019 г., приключения, фэнтези, семейный, WEB-DL 720p] Original (iTunes) makkol
1 | 0

0 | 313

11

02.10.2019 19:46

Наше кино [HDDVDRip / BDRip / WEB-DL / HDTV 1080/720р] Эбигейл (Александр Богуславский) [2019 г., приключения, фэнтези, семейный, BDRip 720p] Original (Rus iTunes) + 2xDub (Fre, Eng) + Sub (Fre) 90ytr90
79 | 2

0 | 467

6

06.01.2020 11:27

Наше кино [HDDVDRip / BDRip / WEB-DL / HDTV 1080/720р] Эбигейл (Александр Богуславский) [2019 г., приключения, фэнтези, семейный, BDRip 1080p] Original (Rus iTunes) + 2xDub (Fre, Eng) + Sub (Fre) 90ytr90
109 | 6

0 | 574

20

06.01.2020 11:27


Яндекс.Метрика powered by Sphinx


В Н И М А Н И Е
Сайт не распространяет и не хранит электронные версии произведений, а лишь бесплатно и без коммерческой выгоды (не требуя взамен платы,
SMS и т.д.) предоставляет доступ к создаваемому пользователями каталогу ссылок на торрент-файлы, которые содержат только списки хеш-сумм.
Убедительная просьба с жалобами обращаться напрямую к пользователю, разместившему торрент файл.

Вверх