Loading...
Error

Обратный отсчёт / 10 Minutes Gone (Брайан А. Миллер) [2019 г., боевик, триллер, криминал, детектив, WEB-DL 720p] MVO (Синема УС)

Статистика раздачи
Размер:  3,55 GB   |    Зарегистрирован:  4 месяца 26 дней   |    Скачан:  17 раз

Полного источника не было: 1 месяц 6 дней

Сидов:  0  |  0 KB/s  ]   Личеров:  0  |  0 KB/s  ]

* - сиды/пиры с внешних источников

   
 
Автор Сообщение

makkol Пол:Муж

29-Сен-2019 09:17

Обратный отсчёт / 10 Minutes Gone


Год выпуска: 2019
Жанр: боевик, триллер, криминал, детектив
Производство: Канада , США [Emmett/Furla/Oasis Films (EFO Films), MoviePass Films, Potato Eater Productions]
Режиссер: Брайан А. Миллер
В ролях: Брюс Уиллис, Майкл Чиклис, Медоу Уильямс, Кайл Шмид, Тексас Бэттл, Лидия Халл, Свен Теммел, Джон Д. Хикман, Серхио Риццуто, Джеффри М. Ривз
Сюжет фильма:
У грабителя-эксперта Фрэнка Салливана никогда не было проблем с работой, пока его брата не убили во время ограбления. После потери сознания Фрэнк просыпается на грязной аллее, не помня, почему ограбление сорвалось и кто застрелил его брата. Для босса Фрэнка, лорда Рекса, все это не имеет значения. Ему нужна добыча, которая была упущена. Теперь Фрэнк должен выяснить, кто из членов команды предал их и найти таинственный портфель, чтобы спасти свою собственную шкуру и отомстить за смерть брата.

  • Мировая премьера: 27 сентября 2019
  • Российская премьера: 5 декабря 2019


Качество видео: WEB-DL 720p

Продолжительность: 01:26:55
Формат: MKV
Видео: MPEG-4 AVC, 1280x690 (1.85:1), 23.976 fps, 5351 kbps
Аудио: русский, любительский многоголосый закадровый (Синема УС), AC3 2.0, 48 kHz, 384 kbps

Код:

Общее
Полное имя                               : 10.Minutes.Gone.2019.WEB-DLRip.720p-LQ.mkv
Формат                                   : Matroska
Версия формата                           : Version 2
Размер файла                             : 3,55 Гбайт
Продолжительность                        : 1 ч. 26 м.
Режим общего битрейта                    : Переменный
Общий поток                              : 5851 Кбит/сек
Программа кодирования                    : libmatroska 1.4.1
Библиотека кодирования                   : SolveigMM Matroska Muxer Version 1.0.1502.31

Видео
Идентификатор                            : 1
Формат                                   : AVC
Формат/Информация                        : Advanced Video Codec
Профиль формата                          : High@L4.1
Настройки формата                        : CABAC / 4 Ref Frames
Параметр CABAC формата                   : Да
Параметр RefFrames формата               : 4 кадра
Идентификатор кодека                     : V_MPEG4/ISO/AVC
Продолжительность                        : 1 ч. 26 м.
Вид битрейта                             : Переменный
Битрейт                                  : 5351 Кбит/сек
Максимальный битрейт                     : 6000 Кбит/сек
Ширина                                   : 1280 пикселей
Высота                                   : 690 пикселей
Соотношение сторон                       : 1,85:1
Режим частоты кадров                     : Постоянный
Частота кадров                           : 23,976 (24000/1001) кадра/сек
Стандарт вещания                         : Component
Цветовое пространство                    : YUV
Субдискретизация насыщенности            : 4:2:0
Битовая глубина                          : 8 бит
Тип развёртки                            : Прогрессивная
Бит/(Пиксели*Кадры)                      : 0.253
Размер потока                            : 3,25 Гбайт (91%)
Default                                  : Нет
Forced                                   : Нет
Цветовой диапазон                        : Limited
Основные цвета                           : BT.709
Характеристики трансфера                 : BT.709
Коэффициенты матрицы                     : BT.709

Аудио
Идентификатор                            : 2
Формат                                   : AC-3
Формат/Информация                        : Audio Coding 3
Коммерческое название                    : Dolby Digital
Идентификатор кодека                     : A_AC3
Продолжительность                        : 1 ч. 26 м.
Вид битрейта                             : Постоянный
Битрейт                                  : 384 Кбит/сек
Каналы                                   : 2 канала
ChannelLayout                            : L R
Частота                                  : 48,0 КГц
Частота кадров                           : 31,250 кадров/сек (1536 SPF)
Битовая глубина                          : 16 бит
Метод сжатия                             : С потерями
Задержка видео                           : 29 мс.
Размер потока                            : 239 Мбайт (7%)
Язык                                     : Russian
ServiceKind/String                       : Complete Main
Default                                  : Нет
Forced                                   : Нет


picpicpicpicpic
Для увеличения картинки щелкните мышкой по превью

Этот торрент недоступен для скачивания без регистрации, однако доступен по публичной magnet-ссылке (источники с публичных трекеров). Перед использованием ссылки прочтите, пожалуйста Пользовательское соглашение, а также как можно дольше оставайтесь на раздаче! Для того, чтобы скачать сам торрент-файл (который видит больше источников), а также для того, чтобы поблагодарить релизера, вам необходимо зарегистрироваться. Если регистрироваться лень - вы можете также попробовать скачать релиз по нашим партнерским ссылкам ниже. Кроме того, зарегистрированным пользователям не показывается всплывающая реклама при скачивании.

[underver.se].t145519.torrent
Трекер: Зарегистрирован   [ 29.09.2019 09:17 ]  

Статус: T временная (by makkol at 29.09.2019 09:19)
Поблагодарили: пока никто не поблагодарил...
Тип торрента: публичный - доступные источники с открытых трекеров: 
Размер: 3,55 GB (занимает 0,81 DVDR, для записи нужно 1 болванка DVDR/RW)
 
 
Похожие темы
Форум Тема Автор Торрент Отв. Посл. сооб.
Зарубежное кино [DVDRip, Low-Res HDRip, и т.д.] Обратный отсчёт / 6:42 / Countdown (Джон Стокуэлл) [2016 г., боевик, BDRip] MVO + Original makkol
9 | 1

1 | 1722

79

04.04.2016 23:34

Зарубежное кино [DVDRip, Low-Res HDRip, и т.д.] Обратный отсчет / Countdown (Джастин Дек / Justin Dec) [2019 г., ужасы, триллер, HDRip] Dub (iTunes) 90ytr90
46 | 1

0 | 458

25

14.01.2020 07:44

T Зарубежное кино [DVDRip, Low-Res HDRip, и т.д.] Обратный отсчёт / 10 Minutes Gone (Брайан А. Миллер) [2019 г., боевик, триллер, криминал, детектив, WEB-DLRip] MVO (Синема УС) makkol
59 | 0

0 | 509

29

29.09.2019 09:13

Зарубежное кино [DVDRip, Low-Res HDRip, и т.д.] Обратный отсчет / Countdown (Джастин Дек / Justin Dec) [2019 г., ужасы, триллер, BDRip-AVC] Dub (iTunes) + Original (Eng) + Sub (Eng) 90ytr90
134 | 20

0 | 439

21

16.01.2020 06:59

Зарубежное кино [DVDRip, Low-Res HDRip, и т.д.] Обратный отсчет / Countdown (Джастин Дек / Justin Dec) [2019 г., ужасы, триллер, BDRip-AVC] Dub (iTunes) + Original (Eng) + Sub (Eng) 90ytr90
31 | 2

0 | 279

7

17.02.2020 19:00

Зарубежное кино [DVD / HDDVD / BD / Remux] Обратный отсчет / Countdown (Джастин Дек / Justin Dec) [2019 г., ужасы, триллер, BDRemux 1080p] Dub (iTunes) + Original (Eng) + Sub (Eng) 90ytr90
57 | 8

0 | 534

9

14.01.2020 08:14

Зарубежное кино [HDDVDRip / BDRip / WEB-DL / HDTV 1080/720р] Обратный отсчёт / 6:42 / Countdown (Джон Стокуэлл) [2016 г., боевик, BDRip 720p] MVO + Original makkol
2 | 0

0 | 896

16

05.04.2016 13:14

Зарубежное кино [HDDVDRip / BDRip / WEB-DL / HDTV 1080/720р] Обратный отсчет / Countdown (Джастин Дек) [2019 г., ужасы, триллер, BDRip 720p] Dub (iTunes) + Original makkol
2 | 0

0 | 446

12

13.01.2020 20:53

Зарубежное кино [HDDVDRip / BDRip / WEB-DL / HDTV 1080/720р] Обратный отсчет / Countdown (Джастин Дек) [2019 г., ужасы, триллер, BDRip 1080p] Dub (iTunes) + Original makkol
17 | 0

0 | 510

15

13.01.2020 21:02

Зарубежное кино [HDDVDRip / BDRip / WEB-DL / HDTV 1080/720р] Обратный отсчет / Countdown (Джастин Дек / Justin Dec) [2019 г., ужасы, триллер, BDRip 1080p] Dub (iTunes) + Original (Eng) + Sub (Eng) 90ytr90
881 | 42

0 | 378

16

15.01.2020 08:13


Яндекс.Метрика powered by Sphinx


В Н И М А Н И Е
Сайт не распространяет и не хранит электронные версии произведений, а лишь бесплатно и без коммерческой выгоды (не требуя взамен платы,
SMS и т.д.) предоставляет доступ к создаваемому пользователями каталогу ссылок на торрент-файлы, которые содержат только списки хеш-сумм.
Убедительная просьба с жалобами обращаться напрямую к пользователю, разместившему торрент файл.

Вверх