Loading...
Error

Женский гений живописи / The Story of Women & Art (3 серии из 3) / (Джон Ходжсон) [2014 г., документальный, живопись, история, всемирное искусство, DVB] MVO

Статистика раздачи
Размер:  4,38 GB   |    Зарегистрирован:  6 месяцев   |    Скачан:  1 раз

Полного источника не было: 2 месяца 5 дней

Сидов:  0  |  0 KB/s  ]   Личеров:  0  |  0 KB/s  ]

* - сиды/пиры с внешних источников

   
 
Автор Сообщение

ARI71 Пол:Муж

12-Авг-2019 08:00

Женский гений живописи / The Story of Women & Art (3 серии из 3)


Год выпуска: 2014
Жанр: документальный, живопись, история, всемирное искусство
Страна: Великобритания BBC, "Viasat History"
Режиссер: Джон Ходжсон
Ведущая: Аманда Викери
Сюжет фильма:
Профессор - историк Аманда Викери расскажет удивительные истории о талантливых женщинах, которые превзошли обстоятельства непреодолимой силы ради того, чтобы посвятить себя искусству. Сначала она расскажет о художницах эпохи Ренессанса, в частности об итальянской художнице Лавинии Фонтана, одной из немногих женщин, чьи работы находятся в галерее Уффици. Затем вместе с Амандой мы перенесемся в XVIII век и узнаем о французской художнице Элизабет Виже-Лебрен, которая имела огромный успех и создала более тысячи картин, находясь под патронатом самой Марии-Антуанетты. Далее Аманда Викери расскажет о том, как в XX веке женщины наравне с мужчинами начинают обучаться в художественных академиях. В программу также включено интервью с известной британской художницей Трейси Эмин. Кроме произведений искусства в передаче представлено огромное количество исторических документов и материалов из музеев и архивов Великобритании.

Качество видео: DVB

Продолжительность: 3 x ~ 00:59:00
Формат: MPG
Видео: MPEG-2, 704x576@1024x576, 3250 kbps
Аудио: русский, многоголосый [профессиональный], MP2 2.0, 192 kbps

Код:

Общее
Полное имя : Женский гений живописи\1. Женский гений живописи 0001.mpg
Формат : MPEG-PS
Размер файла : 1,46 Гбайт
Продолжительность : 59 м. 22 с.
Режим общего битрейта : Переменный
Общий поток : 3512 Кбит/сек

Видео
Идентификатор : 224 (0xE0)
Формат : MPEG Video
Версия формата : Version 2
Профиль формата : Main@Main
Настройки формата : CustomMatrix / BVOP
Параметр BVOP формата : Да
Параметр матрицы формата : Выборочная
Параметр GOP формата : Variable
Структура изображения : Frame
Продолжительность : 59 м. 22 с.
Вид битрейта : Переменный
Битрейт : 3250 Кбит/сек
Максимальный битрейт : 15,0 Мбит/сек
Ширина : 704 пикселя
Высота : 576 пикселей
Соотношение сторон : 16:9
Частота кадров : 25,000 кадров/сек
Стандарт вещания : PAL
Цветовое пространство : YUV
Субдискретизация насыщенности : 4:2:0
Битовая глубина : 8 бит
Тип развёртки : Чересстрочная
Порядок развёртки : Верхнее поле первое
Метод сжатия : С потерями
Бит/(Пиксели*Кадры) : 0.321
Временной код первого кадра : 00:00:00:00
Оригинал временного кода : Group of pictures header
GOP, открыто/закрыто : Открыто
GOP, открыто/закрыто на первом кадре : Закрыто
Размер потока : 1,35 Гбайт (93%)

Аудио
Идентификатор : 192 (0xC0)
Формат : MPEG Audio
Версия формата : Version 1
Профиль формата : Layer 2
Продолжительность : 59 м. 22 с.
Вид битрейта : Постоянный
Битрейт : 192 Кбит/сек
Каналы : 2 канала
Частота : 48,0 КГц
Частота кадров : 41,667 кадра/сек (1152 SPF)
Метод сжатия : С потерями
Задержка видео : 24 мс.
Размер потока : 81,5 Мбайт (5%)
01 серия
Профессор Аманда Викери отправляется в Италию, а затем в Нидерланды, чтобы подробнее узнать о женщинах-художницах эпохи Ренессанса.
02 серия
Профессор Аманда Викери расскажет о женщинах-художницах 18-го века, обратив особое внимание на индустриальную революцию в Великобритании и на двор Марии-Антуанетты.
03 серия
Профессор Аманда Викери расскажет о новых возможностях, которые получили женщины в XX веке. Это было время, когда западные художницы перешли границы дозволенного в искусстве.
picpicpicpicpic
Для увеличения картинки щелкните мышкой по превью

Этот торрент недоступен для скачивания без регистрации, однако доступен по публичной magnet-ссылке (источники с публичных трекеров). Перед использованием ссылки прочтите, пожалуйста Пользовательское соглашение, а также как можно дольше оставайтесь на раздаче! Для того, чтобы скачать сам торрент-файл (который видит больше источников), а также для того, чтобы поблагодарить релизера, вам необходимо зарегистрироваться. Если регистрироваться лень - вы можете также попробовать скачать релиз по нашим партнерским ссылкам ниже. Кроме того, зарегистрированным пользователям не показывается всплывающая реклама при скачивании.

[underverse.name].t140871.torrent
Трекер: Зарегистрирован   [ 12.08.2019 08:00 ]  

Статус: проверено (by ARI71 at 12.08.2019 08:01)
Поблагодарили: пока никто не поблагодарил...
Тип торрента: публичный - доступные источники с открытых трекеров: 
Размер: 4,38 GB (занимает 1 DVDR, для записи нужно 1 болванка DVDR/RW)
 
 
Похожие темы
Форум Тема Автор Торрент Отв. Посл. сооб.
Архив (документальное кино) Женский гений живописи / The Story of Women & Art (1-3 серии из 3) / (Джон Ходжсон) [2014 г., документальный, живопись, история, всемирное искусство, HDTVRip 720p] Dub ARI71
0 | 0

1 | 1135

5

21.11.2018 19:17


Яндекс.Метрика powered by Sphinx


В Н И М А Н И Е
Сайт не распространяет и не хранит электронные версии произведений, а лишь бесплатно и без коммерческой выгоды (не требуя взамен платы,
SMS и т.д.) предоставляет доступ к создаваемому пользователями каталогу ссылок на торрент-файлы, которые содержат только списки хеш-сумм.
Убедительная просьба с жалобами обращаться напрямую к пользователю, разместившему торрент файл.

Вверх