Loading...
Error

Два билета домой (Дмитрий Месхиев) [2018 г., драма, WEB-DL 1080p]

Статистика раздачи
Размер:  3,49 GB   |    Зарегистрирован:  1 год 1 месяц   |    Скачан:  21 раз

Полного источника не было: 3 месяца 8 дней

Сидов:  0  |  0 KB/s  ]   Личеров:  0  |  0 KB/s  ]

* - сиды/пиры с внешних источников

   
 
Автор Сообщение

makkol Пол:Муж

01-Июл-2019 16:21

Два билета домой


Год выпуска: 2018
Жанр: драма
Производство: Россия [КиноДело]
Режиссер: Дмитрий Месхиев
В ролях: Мария Скуратова, Сергей Гармаш, Камиль Хардин, Евгений Ткачук, Наталья Суркова, Ирина Рахманова, Ирина Розанова, Роман Агеев, Валерий Болданюк
Сюжет фильма:
Люба Васнецова живет в провинциальном интернате, мечтает поскорее его закончить, уехать в Санкт-Петербург и стать стюардессой. Будущее кажется прекрасным — после окончания интерната ей вручают ключи от квартиры, впереди новая жизнь. Но в день своего выпускного она узнает, что она не круглая сирота — ее отец жив, а не погиб, как рассказывали ей раньше. Потрясенная девушка решает его найти.

  • Мировая премьера: 12 октября 2018
  • Российская премьера: 25 октября 2018


Качество видео: WEB-DL 1080p

Продолжительность: 01:34:00
Формат: MKV
Видео: MPEG-4 AVC, 1920x1080 (16:9), 25.000 fps, 5114 kbps
Аудио: русский, оригинал, AC3 2.0, 48 kHz, 192 kbps

Код:

Формат                                   : Matroska
Версия формата                           : Version 4
Размер файла                             : 3,49 Гбайт
Продолжительность                        : 1 ч. 34 м.
Общий поток                              : 5308 Кбит/сек
Программа кодирования                    : mkvmerge v7.8.0 ('River Man') 32bit built on Mar 27 2015 16:18:02
Библиотека кодирования                   : libebml v1.3.1 + libmatroska v1.4.2

Видео
Идентификатор                            : 1
Формат                                   : AVC
Формат/Информация                        : Advanced Video Codec
Профиль формата                          : High@L4
Настройки формата                        : CABAC / 4 Ref Frames
Параметр CABAC формата                   : Да
Параметр RefFrames формата               : 4 кадра
Идентификатор кодека                     : V_MPEG4/ISO/AVC
Продолжительность                        : 1 ч. 34 м.
Битрейт                                  : 5114 Кбит/сек
Ширина                                   : 1920 пикселей
Высота                                   : 1080 пикселей
Соотношение сторон                       : 16:9
Режим частоты кадров                     : Постоянный
Частота кадров                           : 25,000 кадров/сек
Цветовое пространство                    : YUV
Субдискретизация насыщенности            : 4:2:0
Битовая глубина                          : 8 бит
Тип развёртки                            : Прогрессивная
Бит/(Пиксели*Кадры)                      : 0.099
Размер потока                            : 3,36 Гбайт (96%)
Default                                  : Да
Forced                                   : Нет

Аудио
Идентификатор                            : 2
Формат                                   : AC-3
Формат/Информация                        : Audio Coding 3
Коммерческое название                    : Dolby Digital
Идентификатор кодека                     : A_AC3
Продолжительность                        : 1 ч. 34 м.
Вид битрейта                             : Постоянный
Битрейт                                  : 192 Кбит/сек
Каналы                                   : 2 канала
Channel layout                           : L R
Частота                                  : 48,0 КГц
Частота кадров                           : 31,250 кадров/сек (1536 SPF)
Битовая глубина                          : 16 бит
Метод сжатия                             : С потерями
Размер потока                            : 129 Мбайт (4%)
ServiceKind/String                       : Complete Main
Default                                  : Да
Forced                                   : Нет
Релиз:

picpicpicpicpic
Для увеличения картинки щелкните мышкой по превью

Этот торрент недоступен для скачивания без регистрации, однако доступен по публичной magnet-ссылке (источники с публичных трекеров). Перед использованием ссылки прочтите, пожалуйста Пользовательское соглашение, а также как можно дольше оставайтесь на раздаче! Для того, чтобы скачать сам торрент-файл (который видит больше источников), а также для того, чтобы поблагодарить релизера, вам необходимо зарегистрироваться. Если регистрироваться лень - вы можете также попробовать скачать релиз по нашим партнерским ссылкам ниже. Кроме того, зарегистрированным пользователям не показывается всплывающая реклама при скачивании.

[underverse.name].t137194.torrent
Трекер: Зарегистрирован   [ 01.07.2019 16:21 ]  

Статус: проверено (by makkol at 01.07.2019 16:21)
Поблагодарили: 1 человек
Тип торрента: публичный - доступные источники с открытых трекеров: 
Размер: 3,49 GB (занимает 0,8 DVDR, для записи нужно 1 болванка DVDR/RW)
 
 
Похожие темы
Форум Тема Автор Торрент Отв. Посл. сооб.
Наше кино [DVDRip, Low-Res HDRip, и т.д.] Два билета домой (Дмитрий Месхиев) [2018 г., драма, WEB-DLRip] makkol
3 | 0

0 | 227

4

01.07.2019 16:00

Наше кино [DVDRip, Low-Res HDRip, и т.д.] Два билета домой (Дмитрий Месхиев) [2018 г., драма, WEB-DLRip-AVC] makkol
18 | 0

0 | 251

4

01.07.2019 16:07

Наше кино [HDDVDRip / BDRip / WEB-DL / HDTV 1080/720р] Два билета домой (Дмитрий Месхиев) [2018 г., драма, WEB-DL 720p] makkol
7 | 0

0 | 239

9

01.07.2019 16:13


Яндекс.Метрика powered by Sphinx


В Н И М А Н И Е
Сайт не распространяет и не хранит электронные версии произведений, а лишь бесплатно и без коммерческой выгоды (не требуя взамен платы,
SMS и т.д.) предоставляет доступ к создаваемому пользователями каталогу ссылок на торрент-файлы, которые содержат только списки хеш-сумм.
Убедительная просьба с жалобами обращаться напрямую к пользователю, разместившему торрент файл.

Вверх