Loading...
Error

Счастливые времена / The Happy Time (Ричард Флайшер / Richard Fleischer) [1952, США, комедия, мелодрама, HDTVRip 720p] VO (Nastia) + Sub (Rus), Eng + Original (Eng)

Статистика раздачи
Размер:  2,83 GB   |    Зарегистрирован:  1 год 7 месяцев   |    Скачан:  5 раз

Полного источника не было: 11 часов

Сидов:  0  |  0 KB/s  ]   Личеров:  0  |  0 KB/s  ]

* - сиды/пиры с внешних источников

   
 
Автор Сообщение

Magnat Пол:Муж

09-Июн-2019 19:09

Счастливые времена / The Happy Time

Страна: США
Студия: Stanley Kramer Productions
Жанр: комедия, мелодрама
Год выпуска: 1952
Продолжительность: 01:33:49

Перевод: Одноголосый закадровый - Nastia
Субтитры: русские (полные и только на песни, перевод - larisa_k), английские
Оригинальная аудиодорожка: английский

Режиссер: Ричард Флайшер / Richard Fleischer
Композитор: Дмитрий Тёмкин / Dimitri Tiomkin

В ролях: Шарль Буайе / Charles Boyer ... Jacques Bonnard
Луи Журдан / Louis Jourdan ... Uncle Desmond Bonnard
Марша Хант / Marsha Hunt ... Susan Bonnard
Бобби Дрисколл / Bobby Driscoll ... Robert 'Bibi' Bonnard
Линда Кристиан / Linda Christian ... Mignonette Chappuis
Курт Казнар / Kurt Kasznar ... Uncle Louis Bonnard
Марсель Далио / Marcel Dalio ... Grandpere Bonnard
Жанетт Нолан / Jeanette Nolan ... Felice Bonnard
Джек Рэйне / Jack Raine ... Mr. Frye - School Principal
Ричард Эрдман / Richard Erdman ... Alfred Grattin
Марлен Камерон / Marlene Cameron ... Peggy O'Hare
Джин Коллинз / Gene Collins ... Jimmy Bishop
Энн Фабер / Ann Faber ... Yvonne Bonnard
Кэтрин Шелдон / Kathryn Sheldon ... Miss Tate - Schoolteacher
Морис Марсак / Maurice Marsac ... The Great Gaspari


Описание: Экранизация одноимённого романа Роберта Фонтейна.
Действие картины происходит в 1920-е годы во французской Канаде. Семейство Боннар готовится к дню рождения их младшего сына Биби. Ему дарят много подарков, но, в качестве главного, отец семейства Жак Боннар, дирижёр маленького местного театра, отправляется с сыном на вечернее представление. Фокусник Великий Гаспари демонстрирует «распиливание женщины». Во время трюка он позволяет себе поцеловать свою ассистентку Миньонетту и та, испортив фокус, убежагает в слезах за кулисы. Жак Боннар предлагает Миньонетте место горничной, и в их доме появляется очаровательная девушка. Соседке Пегги О’Хара очень нравится Биби (хотя он по молодости этого не понимает) и она ревнует его к горничной. Между тем, за Миньонеттой начинает ухаживать дядя Биби — Десмонд, разбитной коммивояжёр...

Золотой глобус, 1953 год
Номинации (4):
Лучший фильм (драма)
Лучшая мужская роль (драма) (Шарль Буайе)
Лучшая мужская роль второго плана (Курт Казнар)
Лучший режиссер (Ричард Флайшер)


Качество видео: HDTVRip 720p
Формат видео: MKV

Видео: AVC, 954x720 (4:3), 23.976 fps, 3596 kbps
Аудио 1: AC3, 48.0 KHz, 2 ch., 192 Kbps (русский одноголосый закадровый перевод) - Nastia
Аудио 2: AC3, 48.0 KHz, 6 ch., 448 Kbps (оригинальная английская звуковая дорожка)
Общее
Уникальный идентификатор : 203021643193579572022089925509118028234 (0x98BC8BD3AA935F448E9ECC92C651E9CA)
Полное имя : Z:\РАЗДАЧИ\the.happy.time.1952.720p.hdtv.x264-regret.mkv
Формат : Matroska
Версия формата : Version 2
Размер файла : 2,83 Гбайт
Продолжительность : 1 ч. 33 м.
Общий поток : 4322 Кбит/сек
Дата кодирования : UTC 2019-05-16 08:34:29
Программа кодирования : mkvmerge v7.8.0 ('River Man') 32bit built on Apr 3 2015 12:11:22
Библиотека кодирования : libebml v1.3.1 + libmatroska v1.4.2

Видео
Идентификатор : 1
Формат : AVC
Формат/Информация : Advanced Video Codec
Профиль формата : High@L4.1
Параметр CABAC формата : Да
Параметр ReFrames формата : 5 кадров
Идентификатор кодека : V_MPEG4/ISO/AVC
Продолжительность : 1 ч. 33 м.
Битрейт : 3596 Кбит/сек
Ширина : 954 пикселя
Высота : 720 пикселей
Соотношение сторон : 4:3
Режим частоты кадров : Постоянный
Частота кадров : 23,976 (24000/1001) кадра/сек
Цветовое пространство : YUV
Субдискретизация насыщенности : 4:2:0
Битовая глубина : 8 бит
Тип развёртки : Прогрессивная
Бит/(Пиксели*Кадры) : 0.218
Размер потока : 2,36 Гбайт (83%)
Библиотека кодирования : x264 core 155 r2901 7d0ff22
Настройки программы : cabac=1 / ref=5 / deblock=1:0:0 / analyse=0x3:0x113 / me=hex / subme=8 / psy=1 / psy_rd=1.00:0.00 / mixed_ref=1 / me_range=16 / chroma_me=1 / trellis=2 / 8x8dct=1 / cqm=0 / deadzone=21,11 / fast_pskip=1 / chroma_qp_offset=-2 / threads=12 / lookahead_threads=2 / sliced_threads=0 / nr=0 / decimate=1 / interlaced=0 / bluray_compat=0 / constrained_intra=0 / bframes=3 / b_pyramid=2 / b_adapt=1 / b_bias=0 / direct=3 / weightb=1 / open_gop=0 / weightp=2 / keyint=250 / keyint_min=23 / scenecut=40 / intra_refresh=0 / rc_lookahead=50 / rc=crf / mbtree=1 / crf=18.0 / qcomp=0.60 / qpmin=0 / qpmax=69 / qpstep=4 / ip_ratio=1.40 / aq=1:1.00
Язык : English
Default : Да
Forced : Нет
Statistics Tags Issue : mkvmerge v9.4.0 ('Knurl') 64bit 2018-01-20 15:53:43 / mkvmerge v7.8.0 ('River Man') 32bit built on Apr 3 2015 12:11:22 2019-05-16 08:34:29
FromStats_BitRate : 3679413
FromStats_Duration : 01:33:49.916000000
FromStats_FrameCount : 134983
FromStats_StreamSize : 2589348581

Аудио #1
Идентификатор : 2
Формат : AC-3
Формат/Информация : Audio Coding 3
Параметр Endianness формата : Big
Идентификатор кодека : A_AC3
Продолжительность : 1 ч. 33 м.
Вид битрейта : Постоянный
Битрейт : 192 Кбит/сек
Каналы : 2 канала
Расположение каналов : Front: L R
Частота : 48,0 КГц
Частота кадров : 31,250 кадров/сек (1536 spf)
Битовая глубина : 16 бит
Метод сжатия : С потерями
Размер потока : 129 Мбайт (4%)
Язык : Russian
ServiceKind/String : Complete Main
Default : Да
Forced : Нет

Аудио #2
Идентификатор : 4
Формат : AC-3
Формат/Информация : Audio Coding 3
Параметр Endianness формата : Big
Идентификатор кодека : A_AC3
Продолжительность : 1 ч. 33 м.
Вид битрейта : Постоянный
Битрейт : 448 Кбит/сек
Каналы : 6 каналов
Расположение каналов : Front: L C R, Side: L R, LFE
Частота : 48,0 КГц
Частота кадров : 31,250 кадров/сек (1536 spf)
Битовая глубина : 16 бит
Метод сжатия : С потерями
Размер потока : 301 Мбайт (10%)
Язык : English
ServiceKind/String : Complete Main
Default : Нет
Forced : Нет
Statistics Tags Issue : mkvmerge v9.4.0 ('Knurl') 64bit 2018-01-20 15:53:43 / mkvmerge v7.8.0 ('River Man') 32bit built on Apr 3 2015 12:11:22 2019-05-16 08:34:29
FromStats_BitRate : 448000
FromStats_Duration : 01:33:49.920000000
FromStats_FrameCount : 175935
FromStats_StreamSize : 315275520

Текст #1
Идентификатор : 3
Формат : UTF-8
Идентификатор кодека : S_TEXT/UTF8
Идентификатор кодека/Информация : UTF-8 Plain Text
Заголовок : SONGS
Язык : Russian
Default : Да
Forced : Нет

Текст #2
Идентификатор : 5
Формат : UTF-8
Идентификатор кодека : S_TEXT/UTF8
Идентификатор кодека/Информация : UTF-8 Plain Text
Язык : Russian
Default : Нет
Forced : Нет

Текст #3
Идентификатор : 6
Формат : UTF-8
Идентификатор кодека : S_TEXT/UTF8
Идентификатор кодека/Информация : UTF-8 Plain Text
Язык : English
Default : Нет
Forced : Нет

Этот торрент недоступен для скачивания без регистрации, однако доступен по публичной magnet-ссылке (источники с публичных трекеров). Перед использованием ссылки прочтите, пожалуйста Пользовательское соглашение, а также как можно дольше оставайтесь на раздаче! Для того, чтобы скачать сам торрент-файл (который видит больше источников), а также для того, чтобы поблагодарить релизера, вам необходимо зарегистрироваться. Если регистрироваться лень - вы можете также попробовать скачать релиз по нашим партнерским ссылкам ниже. Кроме того, зарегистрированным пользователям не показывается всплывающая реклама при скачивании.

[underverse.name].t135611.torrent
Трекер: Зарегистрирован   [ 09.06.2019 19:09 ]  

Статус: проверено (by 90ytr90 at 10.06.2019 05:04)
Поблагодарили: пока никто не поблагодарил...
Тип торрента: публичный - доступные источники с открытых трекеров: 
Размер: 2,83 GB (занимает 0,65 DVDR, для записи нужно 1 болванка DVDR/RW)
 
 
Похожие темы
Форум Тема Автор Торрент Отв. Посл. сооб.
T Зарубежное кино [DVDRip, Low-Res HDRip, и т.д.] Счастливые времена / Happy Times (Майкл Майер) [2019 г., комедия, триллер, HDRip] MVO (AlphaProject) makkol
3 | 0

0 | 263

6

21.11.2020 20:56

T Зарубежное кино [HDDVDRip / BDRip / WEB-DL / HDTV 1080/720р] Счастливые времена / Happy Times (Майкл Майер) [2019 г., комедия, триллер, BDRip 1080p] MVO (AlphaProject) makkol
1 | 0

0 | 243

1

21.11.2020 21:00

09-Июн-2019 21:35

Топик был перенесен из форума Классика зарубежного кино HQ в форум Зарубежное кино [HDDVDRip / BDRip / WEB-DL / HDTV 1080/720р]


Паукан
 

Яндекс.Метрика powered by Sphinx


В Н И М А Н И Е
Сайт не распространяет и не хранит электронные версии произведений, а лишь бесплатно и без коммерческой выгоды (не требуя взамен платы,
SMS и т.д.) предоставляет доступ к создаваемому пользователями каталогу ссылок на торрент-файлы, которые содержат только списки хеш-сумм.
Убедительная просьба с жалобами обращаться напрямую к пользователю, разместившему торрент файл.

Вверх