Loading...
Error

Тайная жизнь домашних животных 2 / The Secret Life of Pets 2 (Крис Рено, Джонатан дель Валь) [2019 г., мультфильм, комедия, приключения, семейный, TS-Proper] Dub

Статистика раздачи
Размер:  1,36 GB   |    Зарегистрирован:  11 месяцев   |    Скачан:  45 раз
Сидов:  2  |  0 KB/s  ]   Личеров:  0  |  0 KB/s  ]

* - сиды/пиры с внешних источников

   
 
Автор Сообщение

makkol Пол:Муж

07-Июн-2019 16:16

Тайная жизнь домашних животных 2 / The Secret Life of Pets 2
«Обхохочешься»


Год выпуска: 2019
Жанр: мультфильм, комедия, приключения, семейный
Производство: США , Франция , Япония [Universal Pictures, Illumination Entertainment, Dentsu]
Режиссер: Крис Рено, Джонатан дель Валь
Роли озвучивали: Пэттон Освальт, Кевин Харт, Харрисон Форд, Эрик Стоунстрит, Дженни Слейт, Тиффани Хэддиш, Лэйк Белл, Дэна Карви, Бобби Мойнахан, Хэннибал Бёресс
Сюжет фильма:
Почему человек так долго спит утром? Чем вкусно пахнет? Дай мне, дай, дай, дай! Как заставить человека чесать за ушком весь день? Ой, что это? Ааай, опять мой хвост! Где взять еще вкусняшек? О, мячик-мячик-мячик!

Узнайте, что действительно беспокоит ваших животных.

  • Мировая премьера: 24 мая 2019
  • Российская премьера: 30 мая 2019
  • Дата релиза в iTunes: 25 июля 2019


Качество видео: TS-Proper

Продолжительность: 01:15:09
Формат: MKV
Видео: MPEG-4 AVC, 720x328 (2.2:1), 23.976 fps, 2200 kbps
Аудио: русский, дублированный, MP2 2.0, 48 kHz, 384 kbps

Код:

Format                         : Matroska
Format version                 : Version 4
File size                      : 1.36 GiB
Duration                       : 1 h 15 min
Overall bit rate mode          : Variable
Overall bit rate               : 2 585 kb/s
Movie name                     : The Secret Life of Pets 2 RUS DUB TS B3stt
Encoded date                   : UTC 2019-06-02 08:45:40
Writing application            : mkvmerge v34.0.0 ('Sight and Seen') 64-bit
Writing library                : libebml v1.3.7 + libmatroska v1.5.0

Video
ID                             : 1
Format                         : AVC
Format/Info                    : Advanced Video Codec
Format profile                 : High@L4.1
Format settings                : CABAC / 2 Ref Frames
Format settings, CABAC         : Yes
Format settings, Reference fra : 2 frames
Codec ID                       : V_MPEG4/ISO/AVC
Duration                       : 1 h 15 min
Bit rate mode                  : Variable
Bit rate                       : 2 200 kb/s
Maximum bit rate               : 18.2 Mb/s
Width                          : 720 pixels
Height                         : 328 pixels
Display aspect ratio           : 2.2:1
Original display aspect ratio  : 2.2:1
Frame rate mode                : Constant
Frame rate                     : 23.976 (24000/1001) FPS
Color space                    : YUV
Chroma subsampling             : 4:2:0
Bit depth                      : 8 bits
Scan type                      : Progressive
Bits/(Pixel*Frame)             : 0.389
Stream size                    : 1.15 GiB (85%)
Title                          : The Secret Life of Pets 2 RUS DUB TS B3stt
Writing library                : x264 core 155
Encoding settings              : cabac=1 / ref=2 / deblock=1:0:0 / analyse=0x3:0x113 / me=hex / subme=7 / psy=1 / psy_rd=1.00:0.00 / mixed_ref=1 / me_range=16 / chroma_me=1 / trellis=1 / 8x8dct=1 / cqm=1 / deadzone=21,11 / fast_pskip=1 / chroma_qp_offset=-2 / threads=6 / lookahead_threads=1 / sliced_threads=0 / slices=1 / nr=0 / decimate=1 / interlaced=0 / minigop=0 / stitchable=1 / constrained_intra=0 / bframes=0 / weightp=2 / keyint=120 / keyint_min=61 / scenecut=100 / intra_refresh=0 / rc_lookahead=40 / rc=abr / mbtree=1 / bitrate=2200 / ratetol=1.0 / qcomp=0.60 / qpmin=3 / qpmax=69 / qpstep=4 / vbv_maxrate=18200 / vbv_bufsize=18200 / nal_hrd=vbr / filler=0 / ip_ratio=1.40 / aq=1:1.00
Language                       : Russian
Default                        : Yes
Forced                         : Yes
Color range                    : Full
Color primaries                : BT.709
Transfer characteristics       : BT.709
Matrix coefficients            : BT.709

Audio
ID                             : 2
Format                         : MPEG Audio
Format version                 : Version 1
Format profile                 : Layer 2
Codec ID                       : A_MPEG/L2
Codec ID/Hint                  : MP2
Duration                       : 1 h 15 min
Bit rate mode                  : Constant
Bit rate                       : 384 kb/s
Channel(s)                     : 2 channels
Sampling rate                  : 48.0 kHz
Frame rate                     : 41.667 FPS (1152 SPF)
Compression mode               : Lossy
Stream size                    : 206 MiB (15%)
Title                          : MP2 Stereo 384kbps
Language                       : Russian
Default                        : Yes
Forced                         : Yes


picpicpicpicpic
Для увеличения картинки щелкните мышкой по превью

Этот торрент недоступен для скачивания без регистрации, однако доступен по публичной magnet-ссылке (источники с публичных трекеров). Перед использованием ссылки прочтите, пожалуйста Пользовательское соглашение, а также как можно дольше оставайтесь на раздаче! Для того, чтобы скачать сам торрент-файл (который видит больше источников), а также для того, чтобы поблагодарить релизера, вам необходимо зарегистрироваться. Если регистрироваться лень - вы можете также попробовать скачать релиз по нашим партнерским ссылкам ниже. Кроме того, зарегистрированным пользователям не показывается всплывающая реклама при скачивании.

[underverse.name].t135445.torrent
Трекер: Зарегистрирован   [ 07.06.2019 16:16 ]  

Статус: поглощено (by 90ytr90 at 03.09.2019 20:00)
Поблагодарили: 2 человека
Тип торрента: публичный - доступные источники с открытых трекеров: 
Размер: 1,36 GB (занимает 0,31 DVDR, для записи нужно 1 болванка DVDR/RW)
 
 
Похожие темы
Форум Тема Автор Торрент Отв. Посл. сооб.
Зарубежное кино [DVDRip, Low-Res HDRip, и т.д.] Тайная жизнь / A Hidden Life (Терренс Малик / Terrence Malick) [2019 г., драма, военный, биография, история, WEB-DLRip] MVO (HDrezka Studio) + Sub (Rus) 90ytr90
10 | 0

0 | 415

5

10.03.2020 08:03

Зарубежное кино [DVDRip, Low-Res HDRip, и т.д.] Тайная жизнь / A Hidden Life (Терренс Малик / Terrence Malick) [2019 г., драма, военный, биография, история, WEB-DLRip] MVO (HDrezka Studio) + Sub (Rus) 90ytr90
22 | 0

0 | 339

4

10.03.2020 07:54

Зарубежное кино [DVDRip, Low-Res HDRip, и т.д.] Тайная жизнь / A Hidden Life (Терренс Малик / Terrence Malick) [2019 г., драма, военный, биография, история, BDRip] MVO (HDrezka Studio) + Sub (Rus) 90ytr90
5 | 2

0 | 510

4

28.03.2020 17:14

Зарубежное кино [DVDRip, Low-Res HDRip, и т.д.] Тайная жизнь / A Hidden Life (Терренс Малик / Terrence Malick) [2019 г., драма, военный, биография, история, BDRip] MVO (HDrezka Studio) + Sub (Rus) 90ytr90
10 | 1

0 | 574

9

28.03.2020 18:03

Зарубежное кино [DVDRip, Low-Res HDRip, и т.д.] Тайная жизнь / A Hidden Life (Терренс Малик) [2019 г., драма, военный, биография, история, BDRip] Dub (iTunes) makkol
109 | 2

0 | 489

10

09.04.2020 10:38

Зарубежное кино [DVDRip, Low-Res HDRip, и т.д.] Тайная жизнь / A Hidden Life (Терренс Малик) [2019 г., драма, военный, биография, история, BDRip] Dub (iTunes) makkol
37 | 7

0 | 456

4

09.04.2020 10:44

Зарубежные мультфильмы Тайная жизнь домашних животных / The Secret Life of Pets (Ярроу Чейни / Yarrow Cheney, Крис Рено / Chris Renaud) [2016 г., мультфильм, комедия, семейный, BDRip-AVC] Dub + Original (Eng) + Sub (Rus,... 90ytr90
83 | 0

0 | 1380

25

13.12.2016 03:07

Зарубежные мультфильмы Тайная жизнь домашних животных / The Secret Life of Pets (Ярроу Чейни / Yarrow Cheney, Крис Рено / Chris Renaud) [2016 г., мультфильм, комедия, семейный, BDRip-AVC] Dub + Sub (Rus) 90ytr90
7 | 1

0 | 1170

18

13.12.2016 03:03

Зарубежные мультфильмы Тайная жизнь домашних животных / The Secret Life of Pets (Ярроу Чейни / Yarrow Cheney, Крис Рено / Chris Renaud) [2016 г., мультфильм, комедия, семейный, BDRip] Dub + Sub (Rus) 90ytr90
250 | 5

0 | 1624

33

13.12.2016 02:55

Зарубежные мультфильмы Тайная жизнь домашних животных / The Secret Life of Pets (Ярроу Чейни / Yarrow Cheney, Крис Рено / Chris Renaud) [2016 г., мультфильм, комедия, семейный, BDRip] Dub + Sub (Rus) 90ytr90
15 | 2

0 | 1243

10

13.12.2016 02:51

03-Сен-2019 20:00

Топик был перенесен из форума Новинки мультфильмов [CAMRip, TS, DVDScr, WP, TC] в форум Для поглощенных раздач

Причина переноса: https://underverse.su/viewtopic.php?t=140547
90ytr90
 

Яндекс.Метрика powered by Sphinx


В Н И М А Н И Е
Сайт не распространяет и не хранит электронные версии произведений, а лишь бесплатно и без коммерческой выгоды (не требуя взамен платы,
SMS и т.д.) предоставляет доступ к создаваемому пользователями каталогу ссылок на торрент-файлы, которые содержат только списки хеш-сумм.
Убедительная просьба с жалобами обращаться напрямую к пользователю, разместившему торрент файл.

Вверх