Loading...
Error

Битва за Землю / Captive State (Руперт Уайатт) [2019 г., фантастика, триллер, BDRip 1080p] MVO (@MUZOBOZ@)

Статистика раздачи
Размер:  10,09 GB   |    Зарегистрирован:  8 месяцев   |    Скачан:  45 раз

Полного источника не было: 1 месяц 22 дня

Сидов:  0  |  0 KB/s  ]   Личеров:  0  |  0 KB/s  ]

* - сиды/пиры с внешних источников

   
 
Автор Сообщение

makkol Пол:Муж

30-Май-2019 21:40

Битва за Землю / Captive State
«10 лет назад они забрали нашу планету. Сегодня мы вернем её!»


Год выпуска: 2019
Жанр: фантастика, триллер
Производство: США [DreamWorks, Amblin Partners, Lightfuse & Gettaway]
Режиссер: Руперт Уайатт
В ролях: Джон Гудмен, Вера Фармига, Эштон Сандерс, Джонатан Мэйджерс, Кевин Данн, Джеймс Рэнсон, Алан Рак, Мадлен Брюэр, Машин Ган Келли, Кевин Дж. О’Коннор
Сюжет фильма:
Мы всегда знали, что не одни в этом мире. Мы отправляли сигналы в надежде получить ответ. И нас услышали. За считанные часы пришельцы захватили Землю и установили свое правительство. Сотовая связь и интернет отключены, электронные библиотеки уничтожены. Большой инопланетный брат следит за каждым, его дроны-охотники днем и ночью патрулируют улицы новой Земли. Мы — последние, те, у кого нет имени, невидимые для системы. Сегодня мы вернем нашу планету.

  • Мировая премьера: 15 марта 2019
  • Российская премьера: 10 мая 2019


Качество видео: BDRip 1080p

Продолжительность: 01:50:22
Формат: MKV
Видео: MPEG-4 AVC, 1920x804 (2.40:1), 23.976 fps, 12.6 Mbps
Аудио: русский, любительский многоголосый закадровый (@MUZOBOZ@), AC3 2.0, 48 kHz, 448 kbps

Код:

Формат                                   : Matroska
Версия формата                           : Version 2
Размер файла                             : 10,1 Гбайт
Продолжительность                        : 1 ч. 50 м.
Режим общего битрейта                    : Переменный
Общий поток                              : 13,1 Мбит/сек
Дата кодирования                         : UTC 2019-05-30 17:03:09
Программа кодирования                    : mkvmerge v8.3.0 ('Over the Horizon') 64bit
Библиотека кодирования                   : libebml v1.3.1 + libmatroska v1.4.2

Видео
Идентификатор                            : 1
Формат                                   : AVC
Формат/Информация                        : Advanced Video Codec
Профиль формата                          : High@L4.1
Настройки формата                        : CABAC / 4 Ref Frames
Параметр CABAC формата                   : Да
Параметр ReFrames формата                : 4 кадра
Идентификатор кодека                     : V_MPEG4/ISO/AVC
Продолжительность                        : 1 ч. 50 м.
Вид битрейта                             : Переменный
Битрейт                                  : 12,6 Мбит/сек
Максимальный битрейт                     : 14,0 Мбит/сек
Ширина                                   : 1920 пикселей
Высота                                   : 804 пикселя
Соотношение сторон                       : 2,40:1
Режим частоты кадров                     : Постоянный
Частота кадров                           : 23,976 (24000/1001) кадра/сек
Стандарт вещания                         : Component
Цветовое пространство                    : YUV
Субдискретизация насыщенности            : 4:2:0
Битовая глубина                          : 8 бит
Тип развёртки                            : Прогрессивная
Бит/(Пиксели*Кадры)                      : 0.341
Размер потока                            : 9,74 Гбайт (97%)
Default                                  : Да
Forced                                   : Нет
Цветовой диапазон                        : Limited
Основные цвета                           : BT.709
Характеристики трансфера                 : BT.709
Коэффициенты матрицы                     : BT.709

Аудио
Идентификатор                            : 2
Формат                                   : AC-3
Формат/Информация                        : Audio Coding 3
Коммерческое название                    : Dolby Digital
Идентификатор кодека                     : A_AC3
Продолжительность                        : 1 ч. 50 м.
Вид битрейта                             : Постоянный
Битрейт                                  : 448 Кбит/сек
Каналы                                   : 2 канала
Channel layout                           : L R
Частота                                  : 48,0 КГц
Частота кадров                           : 31,250 кадров/сек (1536 SPF)
Битовая глубина                          : 16 бит
Метод сжатия                             : С потерями
Размер потока                            : 354 Мбайт (3%)
Service kind                             : Complete Main
Default                                  : Да
Forced                                   : Нет


picpicpicpicpic
Для увеличения картинки щелкните мышкой по превью

Этот торрент недоступен для скачивания без регистрации, однако доступен по публичной magnet-ссылке (источники с публичных трекеров). Перед использованием ссылки прочтите, пожалуйста Пользовательское соглашение, а также как можно дольше оставайтесь на раздаче! Для того, чтобы скачать сам торрент-файл (который видит больше источников), а также для того, чтобы поблагодарить релизера, вам необходимо зарегистрироваться. Если регистрироваться лень - вы можете также попробовать скачать релиз по нашим партнерским ссылкам ниже. Кроме того, зарегистрированным пользователям не показывается всплывающая реклама при скачивании.

[underverse.name].t134122.torrent
Трекер: Зарегистрирован   [ 30.05.2019 21:40 ]  

Статус: T временная (by makkol at 30.05.2019 21:41)
Поблагодарили: пока никто не поблагодарил...
Тип торрента: публичный - доступные источники с открытых трекеров: 
Размер: 10,09 GB (занимает 2,3 DVDR, для записи нужно 3 болванки DVDR/RW)
 
 
Похожие темы
Форум Тема Автор Торрент Отв. Посл. сооб.
T Зарубежное кино [DVDRip, Low-Res HDRip, и т.д.] Битва за Землю / Captive State (Руперт Уайатт) [2019 г., фантастика, триллер, HDRip] MVO (@MUZOBOZ@) makkol
2 | 3

0 | 614

43

30.05.2019 21:31

Зарубежное кино [DVDRip, Low-Res HDRip, и т.д.] Битва за Землю / Captive State (Руперт Уайатт / Rupert Wyatt) [2019 г., фантастика, триллер, BDRip] MVO (CВ Студия) + Original (Eng) + Sub (Rus) 90ytr90
51 | 1

0 | 777

66

01.06.2019 08:29

Зарубежное кино [DVDRip, Low-Res HDRip, и т.д.] Битва за Землю / Captive State (Руперт Уайатт / Rupert Wyatt) [2019 г., фантастика, триллер, BDRip-AVC] Dub (iTunes) + MVO (HDRezka Studio) + MVO (СВ Студия) + Original (Eng) + Sub (Rus, Eng) 90ytr90
55 | 0

0 | 458

26

28.07.2019 15:18

Зарубежное кино [DVDRip, Low-Res HDRip, и т.д.] Битва за Землю / Captive State (Руперт Уайатт / Rupert Wyatt) [2019 г., фантастика, триллер, BDRip-AVC] MVO (CВ Студия) + Original (Eng) + Sub (Rus, Eng) 90ytr90
23 | 0

0 | 639

47

01.06.2019 04:37

T Зарубежное кино [DVDRip, Low-Res HDRip, и т.д.] Битва за Землю / Captive State (Руперт Уайатт) [2019 г., фантастика, триллер, HDRip] Dub (Line) makkol
1 | 0

0 | 452

23

29.06.2019 15:00

Зарубежное кино [DVDRip, Low-Res HDRip, и т.д.] Битва за Землю / Captive State (Руперт Уайатт / Rupert Wyatt) [2019 г., фантастика, триллер, BDRip] Dub (iTunes) 90ytr90
700 | 15

0 | 453

30

27.07.2019 19:53

Зарубежное кино [DVD / HDDVD / BD / Remux] Битва за Землю / Captive State (Руперт Уайатт / Rupert Wyatt) [2019 г., фантастика, триллер, BDRemux 1080p] Dub (iTunes) + MVO (HDRezka Studio) + MVO (СВ Студия) + Original (Eng) + Sub (Rus, Eng) 90ytr90
9 | 3

0 | 519

20

27.07.2019 20:42

T Зарубежное кино [HDDVDRip / BDRip / WEB-DL / HDTV 1080/720р] Битва за Землю / Captive State (Руперт Уайатт) [2019 г., фантастика, триллер, BDRip 720p] MVO (@MUZOBOZ@) makkol
11 | 2

0 | 548

22

30.05.2019 21:35

Зарубежное кино [HDDVDRip / BDRip / WEB-DL / HDTV 1080/720р] Битва за Землю / Captive State (Руперт Уайатт / Rupert Wyatt) [2019 г., фантастика, триллер, BDRip 720p] Dub (iTunes) + Original (Eng) + Sub (Rus, Eng) 90ytr90
437 | 21

0 | 425

35

28.07.2019 15:15

Зарубежное кино [HDDVDRip / BDRip / WEB-DL / HDTV 1080/720р] Битва за Землю / Captive State (Руперт Уайатт / Rupert Wyatt) [2019 г., фантастика, триллер, BDRip 1080р] MVO (CВ Студия) + Original (Eng) + Sub (Rus, Eng) 90ytr90
33 | 2

0 | 565

38

01.06.2019 04:36


Яндекс.Метрика powered by Sphinx


В Н И М А Н И Е
Сайт не распространяет и не хранит электронные версии произведений, а лишь бесплатно и без коммерческой выгоды (не требуя взамен платы,
SMS и т.д.) предоставляет доступ к создаваемому пользователями каталогу ссылок на торрент-файлы, которые содержат только списки хеш-сумм.
Убедительная просьба с жалобами обращаться напрямую к пользователю, разместившему торрент файл.

Вверх