Loading...
Error

Громкая связь (Алексей Нужный) [2019 г., комедия, WEB-DLRip] Rus (iTunes)

Статистика раздачи
Размер:  1,45 GB   |    Зарегистрирован:  10 месяцев   |    Скачан:  80 раз
Сидов:  1  |  27 KB/s  ]   Личеров:  0  |  0 KB/s  ]

* - сиды/пиры с внешних источников

   
 
Автор Сообщение

makkol Пол:Муж

29-Мар-2019 15:22

Громкая связь


Год выпуска: 2019
Жанр: комедия
Производство: Россия [Марс Медиа Энтертейнмент, Стрела]
Режиссер: Алексей Нужный
В ролях: Леонид Барац, Ирина Горбачева, Ростислав Хаит, Мария Миронова, Камиль Ларин, Анастасия Уколова, Александр Демидов, Вероника Корниенко
Сюжет фильма:
Семеро друзей, собравшись в загородном доме, в шутку начинают игру — участники должны зачитывать вслух все приходящие им сообщения, а на звонки отвечать только по громкой связи. Они и представить себе не могут, какие удивительные откровения им предстоит сделать друг о друге.

  • Мировая премьера: 14 февраля 2019
  • Российская премьера: 14 февраля 2019


Качество видео: WEB-DLRip

Продолжительность: 01:35:32
Формат: AVI
Видео: XviD, 720x304 (2.35:1), 24.000 fps, 1776 kbps
Аудио: русский, оригинал (iTunes), AC3 5.1, 48 kHz, 384 kbps

Код:

General
Полное имя : GromkayaSvazWEBDLRip.avi
Формат : AVI
Формат/Информация : Audio Video Interleave
Профиль формата : OpenDML
Размер файла : 1.45 GiB
Продолжительность : 1 h 35 min
Общий поток : 2 172 kb/s
Программа кодирования : XviD4PSP 6.0 / 54.27.101

Video
Идентификатор : 0
Формат : MPEG-4 Visual
Профиль формата : Advanced Simple@L5
Настройки формата : BVOP2 / Custom Matrix
Параметр BVOP формата : 2
Параметр QPel формата : No
Параметр GMC формата : No warppoints
Параметр матрицы формата : Custom
Идентификатор кодека : XVID
Идентификатор кодека/Подсказка : XviD
Продолжительность : 1 h 35 min
Битрейт : 1 776 kb/s
Ширина : 720 pixels
Высота : 304 pixels
Соотношение сторон : 2.35:1
Частота кадров : 24.000 FPS
Цветовое пространство : YUV
Субдискретизация насыщенности : 4:2:0
Битовая глубина : 8 bits
Тип развёртки : Progressive
Метод сжатия : Lossy
Бит/(Пиксели*Кадры) : 0.338
Размер потока : 1.19 GiB (82%)
Библиотека кодирования : XviD 73

Audio
Идентификатор : 1
Формат : AC-3
Формат/Информация : Audio Coding 3
Идентификатор кодека : 2000
Продолжительность : 1 h 35 min
Вид битрейта : Constant
Битрейт : 384 kb/s
Каналы : 6 channels
Расположение каналов : Front: L C R, Side: L R, LFE
Частота : 48.0 kHz
Частота кадров : 31.250 FPS (1536 SPF)
Битовая глубина : 16 bits
Метод сжатия : Lossy
Размер потока : 262 MiB (18%)
Выравнивание : Aligned on interleaves
Продолжительность промежутка : 32 ms (0.77 video frame)
picpicpicpicpic
Для увеличения картинки щелкните мышкой по превью

Этот торрент недоступен для скачивания без регистрации, однако доступен по публичной magnet-ссылке (источники с публичных трекеров). Перед использованием ссылки прочтите, пожалуйста Пользовательское соглашение, а также как можно дольше оставайтесь на раздаче! Для того, чтобы скачать сам торрент-файл (который видит больше источников), а также для того, чтобы поблагодарить релизера, вам необходимо зарегистрироваться. Если регистрироваться лень - вы можете также попробовать скачать релиз по нашим партнерским ссылкам ниже. Кроме того, зарегистрированным пользователям не показывается всплывающая реклама при скачивании.

[underverse.name].t129565.torrent
Трекер: Зарегистрирован   [ 29.03.2019 15:22 ]  

Статус: проверено (by 90ytr90 at 12.12.2019 08:54)
Поблагодарили: 3 человека
Тип торрента: публичный - доступные источники с открытых трекеров: 
Размер: 1,45 GB (занимает 1/3 DVDR, для записи нужно 1 болванка DVDR/RW)
 
 
Похожие темы
Форум Тема Автор Торрент Отв. Посл. сооб.
Наше кино [DVDRip, Low-Res HDRip, и т.д.] Громкая связь (Алексей Нужный) [2018 г., комедия, WEB-DLRip-AVC] Original (iTunes) 90ytr90
42 | 2

0 | 478

24

29.03.2019 15:42

Наше кино [HDDVDRip / BDRip / WEB-DL / HDTV 1080/720р] Громкая связь (Алексей Нужный) [2019 г., комедия, WEB-DL 1080p] Rus (iTunes) makkol
900 | 11

0 | 1067

123

29.03.2019 15:28

T Новинки кино [CAMRip, TS, DVDScr, WP, TC] Громкая связь (Алексей Нужный) [2019 г., комедия, TS 720p] makkol
13 | 0

0 | 1382

75

19.02.2019 11:50

canonipEe Пол:Муж

03-Янв-2020 15:07

:good:

Яндекс.Метрика powered by Sphinx


В Н И М А Н И Е
Сайт не распространяет и не хранит электронные версии произведений, а лишь бесплатно и без коммерческой выгоды (не требуя взамен платы,
SMS и т.д.) предоставляет доступ к создаваемому пользователями каталогу ссылок на торрент-файлы, которые содержат только списки хеш-сумм.
Убедительная просьба с жалобами обращаться напрямую к пользователю, разместившему торрент файл.

Вверх