Loading...
Error

Завод (Юрий Быков) [2018 г., боевик, драма, триллер, криминал, WEB-DL 720p] Original (iTunes)

Статистика раздачи
Размер:  2,28 GB   |    Зарегистрирован:  8 дней   |    Скачан:  11 раз
Сидов:  1  |  0 KB/s  ]   Личеров:  0  |  0 KB/s  ]

* - сиды/пиры с внешних источников

   
 
Автор Сообщение

90ytr90 

14-Мар-2019 18:16

Завод


Название: Завод
Год выпуска: 2018
Жанр: Боевик, драма, триллер, криминал
Режиссёр: Юрий Быков
В ролях: Денис Шведов, Владислав Абашин, Андрей Смоляков, Александр Бухаров, Дмитрий Куличков, Иван Янковский, Юрий Тарасов, Пётр Баранчеев, Александр Воробьёв, Алексей Комашко, Кирилл Полухин, Александр Логинов, Сергей Сосновский, Борис Невзоров, Олег Алмазов, Александр Баширов, Алексей Фаддеев, Илья Соколовский

Описание: Закрывают градообразующий завод. Владелец предприятия — олигарх Калугин — банкротит его, чтобы заключить выгодную сделку с иностранцами. Несколько тысяч рабочих остаются на улице без средств к существованию. Все смиренно принимают эту участь, и только пятеро отчаянных мужиков решают отстоять свое и взять хозяина в заложники, чтоб требовать с него деньги. Вожак работяг — Седой, воевавший и раненый в горячей точке, — вместе с товарищами вступает в смертельную схватку с опричником олигарха Туманом и его группой спецов за жизнь Калугина. Исход боя решит, кто прав — богатые или бедные.



Страна: Россия, Армения, Франция
Студия: Kinovista, Forever Films Media, Coda, Sharm Holding
Продолжительность: 01:50:43
Перевод: Не требуется | iTunes

Качество: WEB-DL 720p
Контейнер: MKV
Видео: MPEG-4 AVC, 1280x532, 2566 Кбит/с, 24.000 fps
Звук: Русский: AC3, 6 ch, 384 Кбит/с - iTunes
Субтитры: Нет
General
Unique ID : 224754196489244556497263011600713474237 (0xA916156E50CCDAB78A7E43D160F960BD)
Complete name : Zavod.2018.WEB-DL.(720p).Getty.mkv
Format : Matroska
Format version : Version 4 / Version 2
File size : 2.28 GiB
Duration : 1 h 50 min
Overall bit rate : 2 952 kb/s
Movie name : Zavod.2018.WEB-DL.(720p).Getty
Encoded date : UTC 2019-03-13 23:30:02
Writing application : mkvmerge v7.8.0 ('River Man') 32bit built on Mar 27 2015 16:18:02
Writing library : libebml v1.3.1 + libmatroska v1.4.2

Video
ID : 1
Format : AVC
Format/Info : Advanced Video Codec
Format profile : High@L4
Format settings, CABAC : Yes
Format settings, RefFrames : 4 frames
Codec ID : V_MPEG4/ISO/AVC
Duration : 1 h 50 min
Bit rate : 2 566 kb/s
Width : 1 280 pixels
Height : 532 pixels
Display aspect ratio : 2.40:1
Frame rate mode : Constant
Frame rate : 24.000 FPS
Color space : YUV
Chroma subsampling : 4:2:0
Bit depth : 8 bits
Scan type : Progressive
Bits/(Pixel*Frame) : 0.154
Stream size : 1.94 GiB (85%)
Default : Yes
Forced : No

Audio
ID : 2
Format : AC-3
Format/Info : Audio Coding 3
Format settings, Endianness : Big
Codec ID : A_AC3
Duration : 1 h 50 min
Bit rate mode : Constant
Bit rate : 384 kb/s
Channel(s) : 6 channels
Channel positions : Front: L C R, Side: L R, LFE
Sampling rate : 48.0 kHz
Frame rate : 31.250 FPS (1536 SPF)
Bit depth : 16 bits
Compression mode : Lossy
Stream size : 304 MiB (13%)
Service kind : Complete Main
Default : Yes
Forced : No

Этот торрент недоступен для скачивания без регистрации, однако доступен по публичной magnet-ссылке (источники с публичных трекеров). Перед использованием ссылки прочтите, пожалуйста Пользовательское соглашение, а также как можно дольше оставайтесь на раздаче! Для того, чтобы скачать сам торрент-файл (который видит больше источников), а также для того, чтобы поблагодарить релизера, вам необходимо зарегистрироваться. Если регистрироваться лень - вы можете также попробовать скачать релиз по нашим партнерским ссылкам ниже. Кроме того, зарегистрированным пользователям не показывается всплывающая реклама при скачивании.

[underverse.name].t128627.torrent
Трекер: Зарегистрирован   [ 14.03.2019 18:16 ]  

Статус: * не проверено
Поблагодарили: пока никто не поблагодарил...
Тип торрента: публичный - доступные источники с открытых трекеров: 
Размер: 2,28 GB (занимает 0,52 DVDR, для записи нужно 1 болванка DVDR/RW)
 
 
Похожие темы
Форум Тема Автор Торрент Отв. Посл. сооб.
* Наше кино [DVDRip, Low-Res HDRip, и т.д.] Завод (Юрий Быков) [2018 г., криминал, драма, триллер, WEBRip-AVC] 90ytr90
43 | 1

0 | 71

5

28.02.2019 17:15

* Наше кино [DVDRip, Low-Res HDRip, и т.д.] Завод (Юрий Быков) [2018 г., криминал, драма, триллер, WEBRip] 90ytr90
2379 | 7

0 | 153

22

28.02.2019 17:09

* Наше кино [DVDRip, Low-Res HDRip, и т.д.] Завод (Юрий Быков) [2018 г., криминал, драма, триллер, WEBRip-AVC] 90ytr90
179 | 3

3 | 315

39

05.03.2019 19:34

* Наше кино [DVDRip, Low-Res HDRip, и т.д.] Завод (Юрий Быков) [2018 г., боевик, драма, триллер, криминал, WEB-DLRip] Original (iTunes) 90ytr90
405 | 15

0 | 372

13

14.03.2019 18:14

* Наше кино [DVDRip, Low-Res HDRip, и т.д.] Завод (Юрий Быков) [2018 г., криминал, драма, триллер, WEB-DLRip] Original (iTunes) 90ytr90
223 | 13

0 | 424

11

14.03.2019 18:16

* Наше кино [HDDVDRip / BDRip / WEB-DL / HDTV 1080/720р] Завод (Юрий Быков) [2018 г., криминал, драма, триллер, WEBRip 1080p] 90ytr90
1071 | 3

0 | 214

58

28.02.2019 17:09

* Наше кино [HDDVDRip / BDRip / WEB-DL / HDTV 1080/720р] Завод (Юрий Быков) [2018 г., криминал, драма, триллер, WEBRip 720p] 90ytr90
1215 | 12

0 | 129

18

28.02.2019 17:10

* Наше кино [HDDVDRip / BDRip / WEB-DL / HDTV 1080/720р] Завод (Юрий Быков) [2018 г., боевик, драма, триллер, криминал, WEB-DL 1080p] Original (iTunes) 90ytr90
376 | 14

0 | 419

19

14.03.2019 18:15


Яндекс.Метрика powered by Sphinx


В Н И М А Н И Е
Сайт не распространяет и не хранит электронные версии произведений, а лишь бесплатно и без коммерческой выгоды (не требуя взамен платы,
SMS и т.д.) предоставляет доступ к создаваемому пользователями каталогу ссылок на торрент-файлы, которые содержат только списки хеш-сумм.
Убедительная просьба с жалобами обращаться напрямую к пользователю, разместившему торрент файл.

Вверх