Loading...
Error

Журнал 64 / Journal 64 (Кристоффер Боэ) [2018 г., триллер, криминал, детектив, BDRip 1080p] VO (Xixidok) + Original

Статистика раздачи
Размер:  8,96 GB   |    Зарегистрирован:  1 год 4 месяца   |    Скачан:  15 раз

Полного источника не было: 1 год

Сидов:  0  |  0 KB/s  ]   Личеров:  0  |  0 KB/s  ]

* - сиды/пиры с внешних источников

   
 
Автор Сообщение

makkol Пол:Муж

27-Фев-2019 21:04

Журнал 64 / Journal 64


Год выпуска: 2018
Жанр: триллер, криминал, детектив
Производство: Дания , Германия [Zentropa Entertainments, Det Danske Filminstitut, Deutscher Filmförderfonds (DFFF)]
Режиссер: Кристоффер Боэ
В ролях: Фарес Фарес, Николай Ли Каас, Эллиотт Кроссет Хов, Андерс Юль, Николас Бро, Сёрен Пильмарк, Фанни Борнедал, Андерс Хове, Вибеке Хаструп
Сюжет фильма:
Детектив копенгагенской полиции Карл Мерк и его помощник Ассад обнаруживают в заброшенной квартире три мумифицированных трупа. Тела рассажены за обеденным столом, где стоит еще один стул, пустой. Теперь им необходимо выяснить зачем стоит пустой стул и что здесь произошло. Расследование приводит Карла к женской клинике на необитаемом острове, в которой проводились жестокие эксперименты

  • Мировая премьера: 29 сентября 2018


Качество видео: BDRip 1080p

Продолжительность: 01:57:54
Формат: MKV
Видео: MPEG-4 AVC, 1920x808 (2.40:1), 24.000 fps, 9110 kbps
Аудио #1: русский, любительский одноголосый (Хихикающий доктор), AC3 2.0, 48 kHz, 256 kbps
Аудио #2: датский, оригинал, DTS 5.1, 48 kHz, 1509 kbps
Субтитры: английские (Full), датские (Forced, Full) вшитые отключаемые

Код:

Format                      : Matroska
Format version              : Version 4
File size                   : 8.96 GiB
Duration                    : 1 h 57 min
Overall bit rate            : 10.9 Mb/s
Encoded date                : UTC 2019-02-26 21:04:38
Writing application         : mkvmerge v7.1.0 ('Good Love') 64bit built on Jul 27 2014 13:06:55
Writing library             : libebml v1.3.0 + libmatroska v1.4.1

Video
ID                          : 1
Format                      : AVC
Format/Info                 : Advanced Video Codec
Format profile              : High@L4.1
Format settings             : CABAC / 5 Ref Frames
Format settings, CABAC      : Yes
Format settings, ReFrames   : 5 frames
Codec ID                    : V_MPEG4/ISO/AVC
Duration                    : 1 h 57 min
Bit rate                    : 9 110 kb/s
Width                       : 1 920 pixels
Height                      : 808 pixels
Display aspect ratio        : 2.40:1
Frame rate mode             : Constant
Frame rate                  : 24.000 FPS
Color space                 : YUV
Chroma subsampling          : 4:2:0
Bit depth                   : 8 bits
Scan type                   : Progressive
Bits/(Pixel*Frame)          : 0.245
Stream size                 : 7.50 GiB (84%)
Writing library             : x264 core 157 r2935 545de2f
Encoding settings           : cabac=1 / ref=5 / deblock=1:0:0 / analyse=0x3:0x113 / me=umh / subme=8 / psy=1 / psy_rd=1.00:0.00 / mixed_ref=1 / me_range=16 / chroma_me=1 / trellis=1 / 8x8dct=1 / cqm=0 / deadzone=21,11 / fast_pskip=1 / chroma_qp_offset=-2 / threads=24 / lookahead_threads=4 / sliced_threads=0 / nr=0 / decimate=1 / interlaced=0 / bluray_compat=0 / constrained_intra=0 / bframes=3 / b_pyramid=2 / b_adapt=1 / b_bias=0 / direct=3 / weightb=1 / open_gop=0 / weightp=2 / keyint=240 / keyint_min=24 / scenecut=40 / intra_refresh=0 / rc_lookahead=50 / rc=2pass / mbtree=1 / bitrate=9110 / ratetol=1.0 / qcomp=0.60 / qpmin=0 / qpmax=69 / qpstep=4 / cplxblur=20.0 / qblur=0.5 / ip_ratio=1.40 / aq=1:1.00
Language                    : Danish
Default                     : Yes
Forced                      : No

Audio #1
ID                          : 2
Format                      : AC-3
Format/Info                 : Audio Coding 3
Commercial name             : Dolby Digital
Codec ID                    : A_AC3
Duration                    : 1 h 57 min
Bit rate mode               : Constant
Bit rate                    : 256 kb/s
Channel(s)                  : 2 channels
Channel layout              : L R
Sampling rate               : 48.0 kHz
Frame rate                  : 31.250 FPS (1536 SPF)
Bit depth                   : 16 bits
Compression mode            : Lossy
Stream size                 : 216 MiB (2%)
Language                    : Russian
Service kind                : Complete Main
Default                     : Yes
Forced                      : No

Audio #2
ID                          : 3
Format                      : DTS
Format/Info                 : Digital Theater Systems
Codec ID                    : A_DTS
Duration                    : 1 h 57 min
Bit rate mode               : Constant
Bit rate                    : 1 509 kb/s
Channel(s)                  : 6 channels
Channel layout              : C L R Ls Rs LFE
Sampling rate               : 48.0 kHz
Frame rate                  : 93.750 FPS (512 SPF)
Bit depth                   : 24 bits
Compression mode            : Lossy
Stream size                 : 1.24 GiB (14%)
Language                    : Danish
Default                     : No
Forced                      : No

Text #1
ID                          : 4
Format                      : UTF-8
Codec ID                    : S_TEXT/UTF8
Codec ID/Info               : UTF-8 Plain Text
Duration                    : 1 h 48 min
Bit rate                    : 0 b/s
Count of elements           : 15
Stream size                 : 579 Bytes (0%)
Title                       : (FORCED)
Language                    : Danish
Default                     : No
Forced                      : No

Text #2
ID                          : 5
Format                      : UTF-8
Codec ID                    : S_TEXT/UTF8
Codec ID/Info               : UTF-8 Plain Text
Duration                    : 1 h 56 min
Bit rate                    : 50 b/s
Count of elements           : 1010
Stream size                 : 43.2 KiB (0%)
Title                       : Danish
Language                    : Danish
Default                     : No
Forced                      : No

Text #3
ID                          : 6
Format                      : UTF-8
Codec ID                    : S_TEXT/UTF8
Codec ID/Info               : UTF-8 Plain Text
Duration                    : 1 h 52 min
Bit rate                    : 50 b/s
Count of elements           : 1097
Stream size                 : 41.4 KiB (0%)
Title                       : English
Language                    : English
Default                     : No
Forced                      : No

Menu
00:00:00.000                : da:Chapter 01
00:09:59.542                : da:Chapter 02
00:19:59.583                : da:Chapter 03
00:29:59.708                : da:Chapter 04
00:39:59.750                : da:Chapter 05
00:49:59.583                : da:Chapter 06
00:59:59.958                : da:Chapter 07
01:09:59.833                : da:Chapter 08
01:19:59.583                : da:Chapter 09
01:29:59.667                : da:Chapter 10
01:39:59.542                : da:Chapter 11
01:49:59.625                : da:Chapter 12
picpicpicpicpic
Для увеличения картинки щелкните мышкой по превью

Этот торрент недоступен для скачивания без регистрации, однако доступен по публичной magnet-ссылке (источники с публичных трекеров). Перед использованием ссылки прочтите, пожалуйста Пользовательское соглашение, а также как можно дольше оставайтесь на раздаче! Для того, чтобы скачать сам торрент-файл (который видит больше источников), а также для того, чтобы поблагодарить релизера, вам необходимо зарегистрироваться. Если регистрироваться лень - вы можете также попробовать скачать релиз по нашим партнерским ссылкам ниже. Кроме того, зарегистрированным пользователям не показывается всплывающая реклама при скачивании.

[underverse.name].t127498.torrent
Трекер: Зарегистрирован   [ 27.02.2019 21:04 ]  

Статус: проверено (by makkol at 27.02.2019 21:05)
Поблагодарили: пока никто не поблагодарил...
Тип торрента: публичный - доступные источники с открытых трекеров: 
Размер: 8,96 GB (занимает 2,05 DVDR, для записи нужно 3 болванки DVDR/RW)
 
 
Похожие темы
Форум Тема Автор Торрент Отв. Посл. сооб.
Зарубежное кино [DVDRip, Low-Res HDRip, и т.д.] Журнал 64 / Journal 64 (Кристоффер Боэ) [2018 г., триллер, криминал, детектив, HDRip] VO (Xixidok) makkol
142 | 4

0 | 424

14

27.02.2019 20:47

T Зарубежное кино [DVDRip, Low-Res HDRip, и т.д.] Журнал 64 / Journal 64 (Кристоффер Боэ) [2018 г., триллер, криминал, детектив, HDRip] MVO (Синема УС) makkol
0 | 2

0 | 387

11

27.02.2019 21:12

T Зарубежное кино [DVDRip, Low-Res HDRip, и т.д.] Журнал 64 / Journal 64 (Кристоффер Боэ) [2018 г., триллер, криминал, детектив, HDRip] MVO (Синема УС) makkol
1 | 0

0 | 454

14

27.02.2019 21:19

T Зарубежное кино [HDDVDRip / BDRip / WEB-DL / HDTV 1080/720р] Журнал 64 / Journal 64 (Кристоффер Боэ) [2018 г., триллер, криминал, детектив, BDRip 720p] MVO (Синема УС) makkol
0 | 0

0 | 556

19

27.02.2019 21:24


Яндекс.Метрика powered by Sphinx


В Н И М А Н И Е
Сайт не распространяет и не хранит электронные версии произведений, а лишь бесплатно и без коммерческой выгоды (не требуя взамен платы,
SMS и т.д.) предоставляет доступ к создаваемому пользователями каталогу ссылок на торрент-файлы, которые содержат только списки хеш-сумм.
Убедительная просьба с жалобами обращаться напрямую к пользователю, разместившему торрент файл.

Вверх