Loading...
Error

Журнал 64 / Journal 64 (Кристоффер Боэ) [2018 г., триллер, криминал, детектив, HDRip] VO (Xixidok)

Статистика раздачи
Размер:  1,37 GB   |    Зарегистрирован:  1 год 4 месяца   |    Скачан:  14 раз

Полного источника не было: 1 месяц

Сидов:  0  |  0 KB/s  ]   Личеров:  0  |  0 KB/s  ]

* - сиды/пиры с внешних источников

   
 
Автор Сообщение

makkol Пол:Муж

27-Фев-2019 20:47

Журнал 64 / Journal 64


Год выпуска: 2018
Жанр: триллер, криминал, детектив
Производство: Дания , Германия [Zentropa Entertainments, Det Danske Filminstitut, Deutscher Filmförderfonds (DFFF)]
Режиссер: Кристоффер Боэ
В ролях: Фарес Фарес, Николай Ли Каас, Эллиотт Кроссет Хов, Андерс Юль, Николас Бро, Сёрен Пильмарк, Фанни Борнедал, Андерс Хове, Вибеке Хаструп
Сюжет фильма:
Детектив копенгагенской полиции Карл Мерк и его помощник Ассад обнаруживают в заброшенной квартире три мумифицированных трупа. Тела рассажены за обеденным столом, где стоит еще один стул, пустой. Теперь им необходимо выяснить зачем стоит пустой стул и что здесь произошло. Расследование приводит Карла к женской клинике на необитаемом острове, в которой проводились жестокие эксперименты

  • Мировая премьера: 29 сентября 2018


Качество видео: HDRip

Продолжительность: 01:57:54
Формат: AVI
Видео: XviD, 720x300 (2.40:1), 24.000 fps, 1461 kbps
Аудио: русский, любительский одноголосый (Хихикающий доктор), MP3 2.0, 44.1 kHz, 192 kbps

Код:

Формат                                   : AVI
Формат/Информация                        : Audio Video Interleave
Размер файла                             : 1,37 Гбайт
Продолжительность                        : 1 ч. 57 м.
Общий поток                              : 1662 Кбит/сек
Программа кодирования                    : VirtualDubMod 1.5.10.3 (build 2550/release)
Библиотека кодирования                   : VirtualDubMod build 2550/release

Видео
Идентификатор                            : 0
Формат                                   : xvid
Идентификатор кодека                     : xvid
Продолжительность                        : 1 ч. 57 м.
Битрейт                                  : 1461 Кбит/сек
Ширина                                   : 720 пикселей
Высота                                   : 300 пикселей
Соотношение сторон                       : 2,40:1
Частота кадров                           : 24,000 кадра/сек
Бит/(Пиксели*Кадры)                      : 0.282
Размер потока                            : 1,20 Гбайт (88%)

Аудио
Идентификатор                            : 1
Формат                                   : MPEG Audio
Версия формата                           : Version 1
Профиль формата                          : Layer 3
Идентификатор кодека                     : 55
Идентификатор кодека/Подсказка           : MP3
Продолжительность                        : 1 ч. 57 м.
Вид битрейта                             : Постоянный
Битрейт                                  : 192 Кбит/сек
Каналы                                   : 2 канала
Частота                                  : 44,1 КГц
Метод сжатия                             : С потерями
Размер потока                            : 162 Мбайт (12%)
Выравнивание                             : Разделение по промежуткам
Продолжительность промежутка             : 42  мс. (1,00 видеокадр)
Время предзагрузки промежутка            : 500  мс.
picpicpicpicpic
Для увеличения картинки щелкните мышкой по превью

Этот торрент недоступен для скачивания без регистрации, однако доступен по публичной magnet-ссылке (источники с публичных трекеров). Перед использованием ссылки прочтите, пожалуйста Пользовательское соглашение, а также как можно дольше оставайтесь на раздаче! Для того, чтобы скачать сам торрент-файл (который видит больше источников), а также для того, чтобы поблагодарить релизера, вам необходимо зарегистрироваться. Если регистрироваться лень - вы можете также попробовать скачать релиз по нашим партнерским ссылкам ниже. Кроме того, зарегистрированным пользователям не показывается всплывающая реклама при скачивании.

[underverse.name].t127497.torrent
Трекер: Зарегистрирован   [ 27.02.2019 20:47 ]  

Статус: проверено (by makkol at 27.02.2019 20:49)
Поблагодарили: пока никто не поблагодарил...
Тип торрента: публичный - доступные источники с открытых трекеров: 
Размер: 1,37 GB (занимает 0,31 DVDR, для записи нужно 1 болванка DVDR/RW)
 
 
Похожие темы
Форум Тема Автор Торрент Отв. Посл. сооб.
T Зарубежное кино [DVDRip, Low-Res HDRip, и т.д.] Журнал 64 / Journal 64 (Кристоффер Боэ) [2018 г., триллер, криминал, детектив, HDRip] MVO (Синема УС) makkol
0 | 2

0 | 387

11

27.02.2019 21:12

T Зарубежное кино [DVDRip, Low-Res HDRip, и т.д.] Журнал 64 / Journal 64 (Кристоффер Боэ) [2018 г., триллер, криминал, детектив, HDRip] MVO (Синема УС) makkol
1 | 0

0 | 454

14

27.02.2019 21:19

Зарубежное кино [HDDVDRip / BDRip / WEB-DL / HDTV 1080/720р] Журнал 64 / Journal 64 (Кристоффер Боэ) [2018 г., триллер, криминал, детектив, BDRip 1080p] VO (Xixidok) + Original makkol
23 | 1

0 | 504

15

27.02.2019 21:04

T Зарубежное кино [HDDVDRip / BDRip / WEB-DL / HDTV 1080/720р] Журнал 64 / Journal 64 (Кристоффер Боэ) [2018 г., триллер, криминал, детектив, BDRip 720p] MVO (Синема УС) makkol
0 | 0

0 | 556

19

27.02.2019 21:24


Яндекс.Метрика powered by Sphinx


В Н И М А Н И Е
Сайт не распространяет и не хранит электронные версии произведений, а лишь бесплатно и без коммерческой выгоды (не требуя взамен платы,
SMS и т.д.) предоставляет доступ к создаваемому пользователями каталогу ссылок на торрент-файлы, которые содержат только списки хеш-сумм.
Убедительная просьба с жалобами обращаться напрямую к пользователю, разместившему торрент файл.

Вверх