Loading...
Error

Тайна гималайских мумий / Mystery of the Himalayan Mummies [2016 г., документальный, исследования, DVB] VO (Велес) + Original (Eng)

Статистика раздачи
Размер:  1,18 GB   |    Зарегистрирован:  1 год   |    Скачан:  7 раз

Полного источника не было: 11 дней

Сидов:  0  |  0 KB/s  ]   Личеров:  0  |  0 KB/s  ]

* - сиды/пиры с внешних источников

   
 
Автор Сообщение

ARI71 Пол:Муж

29-Янв-2019 16:14

Тайна гималайских мумий / Mystery of the Himalayan Mummies


Год выпуска: 2016
Жанр: документальный, исследования
Страна: США National Geographic
Сюжет фильма:
Тайна гималайских мумий привлекает к себе международную группу ученых, исследователей и археологов, которые отправляются в экспедицию, чтобы исследовать целый ряд пещерных захоронений, открытых в одном из самых удаленных мест в Гималаях.
Качество видео: DVB

Продолжительность: 00:43:59
Формат: TS
Видео: MPEG-2, 720х576@1024x576, 3252 kbps
Аудио #1: русский, одноголосый [профессиональный, Велес], MP2 2.0, 192 kbps
Аудио #2: английский, оригинал, MP2 2.0, 192 kbps

Автор рипа: Zakol
Постер от: ARI71

Код:

Общее
Идентификатор : 1 (0x1)
Полное имя : Тайна гималайских мумий DVB (2016).ts
Формат : MPEG-TS
Размер файла : 1,18 Гбайт
Продолжительность : 43 м. 59 с.
Режим общего битрейта : Переменный
Общий поток : 3829 Кбит/сек

Видео
Идентификатор : 274 (0x112)
Идентификатор меню : 25 (0x19)
Формат : MPEG Video
Версия формата : Version 2
Профиль формата : Main@Main
Настройки формата : CustomMatrix
Параметр BVOP формата : Нет
Параметр матрицы формата : Выборочная
Параметр GOP формата : N=24
Структура изображения : Frame
Идентификатор кодека : 2
Продолжительность : 43 м. 59 с.
Вид битрейта : Переменный
Битрейт : 3252 Кбит/сек
Максимальный битрейт : 3300 Кбит/сек
Ширина : 720 пикселей
Высота : 576 пикселей
Соотношение сторон : 16:9
Описание активного формата : Full frame 16:9 image
Частота кадров : 25,000 кадров/сек
Стандарт вещания : PAL
Цветовое пространство : YUV
Субдискретизация насыщенности : 4:2:0
Битовая глубина : 8 бит
Тип развёртки : Чересстрочная
Порядок развёртки : Верхнее поле первое
Метод сжатия : С потерями
Бит/(Пиксели*Кадры) : 0.314
Временной код первого кадра : 00:00:00:00
Оригинал временного кода : Group of pictures header
GOP, открыто/закрыто : Открыто
Размер потока : 1023 Мбайт (85%)

Аудио #1
Идентификатор : 275 (0x113)
Идентификатор меню : 25 (0x19)
Формат : MPEG Audio
Версия формата : Version 1
Профиль формата : Layer 2
Идентификатор кодека : 3
Продолжительность : 43 м. 59 с.
Вид битрейта : Постоянный
Битрейт : 192 Кбит/сек
Каналы : 2 канала
Частота : 48,0 КГц
Частота кадров : 41,667 кадра/сек (1152 SPF)
Метод сжатия : С потерями
Задержка видео : 8 мс.
Размер потока : 60,4 Мбайт (5%)
Язык : Russian

Аудио #2
Идентификатор : 276 (0x114)
Идентификатор меню : 25 (0x19)
Формат : MPEG Audio
Версия формата : Version 1
Профиль формата : Layer 2
Идентификатор кодека : 3
Продолжительность : 43 м. 59 с.
Вид битрейта : Постоянный
Битрейт : 192 Кбит/сек
Каналы : 2 канала
Частота : 48,0 КГц
Частота кадров : 41,667 кадра/сек (1152 SPF)
Метод сжатия : С потерями
Задержка видео : 8 мс.
Размер потока : 60,4 Мбайт (5%)
Язык : English
picpicpicpicpic
Для увеличения картинки щелкните мышкой по превью

Этот торрент недоступен для скачивания без регистрации, однако доступен по публичной magnet-ссылке (источники с публичных трекеров). Перед использованием ссылки прочтите, пожалуйста Пользовательское соглашение, а также как можно дольше оставайтесь на раздаче! Для того, чтобы скачать сам торрент-файл (который видит больше источников), а также для того, чтобы поблагодарить релизера, вам необходимо зарегистрироваться. Если регистрироваться лень - вы можете также попробовать скачать релиз по нашим партнерским ссылкам ниже. Кроме того, зарегистрированным пользователям не показывается всплывающая реклама при скачивании.

[underverse.name].t125433.torrent
Трекер: Зарегистрирован   [ 29.01.2019 16:14 ]  

Статус: проверено (by ARI71 at 29.01.2019 16:15)
Поблагодарили: 1 человек
Тип торрента: публичный - доступные источники с открытых трекеров: 
Размер: 1,18 GB (занимает 0,27 DVDR, для записи нужно 1 болванка DVDR/RW)
 
 

Яндекс.Метрика powered by Sphinx


В Н И М А Н И Е
Сайт не распространяет и не хранит электронные версии произведений, а лишь бесплатно и без коммерческой выгоды (не требуя взамен платы,
SMS и т.д.) предоставляет доступ к создаваемому пользователями каталогу ссылок на торрент-файлы, которые содержат только списки хеш-сумм.
Убедительная просьба с жалобами обращаться напрямую к пользователю, разместившему торрент файл.

Вверх