Loading...
Error

Хранители Алтая (Константин Серебряков) [2018 г., документальный, научный, природа, путешествия, WEB-DL 1080p]

Статистика раздачи
Размер:  1,89 GB   |    Зарегистрирован:  1 год 1 месяц   |    Скачан:  8 раз

Полного источника не было: 2 дня 3 часа

Сидов:  0  |  0 KB/s  ]   Личеров:  0  |  0 KB/s  ]

* - сиды/пиры с внешних источников

   
 
Автор Сообщение

ARI71 Пол:Муж

11-Янв-2019 13:03

Хранители Алтая


Год выпуска: 2018
Жанр: документальный, научно-познавательный, природа, путешествия
Страна: Россия "TIME FILM"
Режиссер: Константин Серебряков
Сюжет фильма:
Алтай. Во все времена тебя считали своим домом великие народы – скифы и согдийцы, хунну и тюрки, монголы и русские. Они оставили память о себе в наскальных рисунках, рунических надписях, каменных воинах, древних традициях, мифических эпосах и в своих потомках, которые берегут природу, наследие и твои священные места по сей день. Съёмки проходили в экспедиции по самым красивым местам Алтая, во время которой авторы фильма разговаривали о прошлом, настоящем и будущем с хранителями древних святилищ и старинных эпосов, заповедной природы и традиций староверов, культуры кочевников и знаний таёжных охотников, скифских образов и тайных троп алтайских странников.

Качество видео: WEB-DL 1080p

Продолжительность: 00:58:21
Формат: MP4
Видео: MPEG-4 AVC, 1920x1080, 4506 kbps
Аудио: русский, AAC 2.0, 137 kbps

Код:

Общее
Полное имя : ХРАНИТЕЛИ АЛТАЯ.mp4
Формат : MPEG-4
Профиль формата : Base Media / Version 2
Идентификатор кодека : mp42 (mp42/mp41/isom/avc1)
Размер файла : 1,89 Гбайт
Продолжительность : 58 м. 21 с.
Режим общего битрейта : Переменный
Общий поток : 4648 Кбит/сек
Дата кодирования : UTC 2018-12-27 14:24:45
Дата пометки : UTC 2018-12-27 14:24:45

Видео
Идентификатор : 1
Формат : AVC
Формат/Информация : Advanced Video Codec
Профиль формата : High@L4
Настройки формата : CABAC / 5 Ref Frames
Параметр CABAC формата : Да
Параметр RefFrames формата : 5 кадров
Идентификатор кодека : avc1
Идентификатор кодека/Информация : Advanced Video Coding
Продолжительность : 58 м. 21 с.
Битрейт : 4506 Кбит/сек
Ширина : 1920 пикселей
Высота : 1080 пикселей
Соотношение сторон : 16:9
Режим частоты кадров : Постоянный
Частота кадров : 25,000 кадров/сек
Цветовое пространство : YUV
Субдискретизация насыщенности : 4:2:0
Битовая глубина : 8 бит
Тип развёртки : Прогрессивная
Бит/(Пиксели*Кадры) : 0.087
Размер потока : 1,84 Гбайт (97%)
Библиотека кодирования : x264 core 157 r10 545de2f
Настройки программы : cabac=1 / ref=5 / deblock=1:0:0 / analyse=0x3:0x113 / me=hex / subme=8 / psy=1 / psy_rd=1.00:0.00 / mixed_ref=1 / me_range=16 / chroma_me=1 / trellis=2 / 8x8dct=1 / cqm=0 / deadzone=21,11 / fast_pskip=1 / chroma_qp_offset=-2 / threads=34 / lookahead_threads=5 / sliced_threads=0 / nr=0 / decimate=1 / interlaced=0 / bluray_compat=0 / stitchable=1 / constrained_intra=0 / bframes=3 / b_pyramid=2 / b_adapt=2 / b_bias=0 / direct=3 / weightb=1 / open_gop=0 / weightp=2 / keyint=infinite / keyint_min=25 / scenecut=40 / intra_refresh=0 / rc_lookahead=50 / rc=crf / mbtree=1 / crf=20.0 / qcomp=0.60 / qpmin=5 / qpmax=69 / qpstep=4 / vbv_maxrate=5500 / vbv_bufsize=15000 / crf_max=0.0 / nal_hrd=none / filler=0 / ip_ratio=1.40 / aq=1:1.00
Дата кодирования : UTC 2018-12-27 14:24:45
Дата пометки : UTC 2018-12-27 14:24:45
Цветовой диапазон : Limited
Основные цвета : BT.709
Характеристики трансфера : BT.709
Коэффициенты матрицы : BT.709
Codec configuration box : avcC

Аудио
Идентификатор : 2
Формат : AAC LC
Формат/Информация : Advanced Audio Codec Low Complexity
Идентификатор кодека : mp4a-40-2
Продолжительность : 58 м. 21 с.
Вид битрейта : Переменный
Битрейт : 137 Кбит/сек
Каналы : 2 канала
Channel layout : L R
Частота : 48,0 КГц
Частота кадров : 46,875 кадров/сек (1024 SPF)
Метод сжатия : С потерями
Размер потока : 57,2 Мбайт (3%)
Дата кодирования : UTC 2018-12-27 14:24:45
Дата пометки : UTC 2018-12-27 14:24:45
picpicpicpicpicpic
Для увеличения картинки щелкните мышкой по превью

Этот торрент недоступен для скачивания без регистрации, однако доступен по публичной magnet-ссылке (источники с публичных трекеров). Перед использованием ссылки прочтите, пожалуйста Пользовательское соглашение, а также как можно дольше оставайтесь на раздаче! Для того, чтобы скачать сам торрент-файл (который видит больше источников), а также для того, чтобы поблагодарить релизера, вам необходимо зарегистрироваться. Если регистрироваться лень - вы можете также попробовать скачать релиз по нашим партнерским ссылкам ниже. Кроме того, зарегистрированным пользователям не показывается всплывающая реклама при скачивании.

[underverse.name].t124091.torrent
Трекер: Зарегистрирован   [ 11.01.2019 13:03 ]  

Статус: проверено (by ARI71 at 11.01.2019 13:03)
Поблагодарили: пока никто не поблагодарил...
Тип торрента: публичный - доступные источники с открытых трекеров: 
Размер: 1,89 GB (занимает 0,43 DVDR, для записи нужно 1 болванка DVDR/RW)
 
 
Похожие темы
Форум Тема Автор Торрент Отв. Посл. сооб.
Мультфильмы HQ Хранители снов / Rise of the Guardians (Питер Рэмси) [2012 г., мультфильм, фэнтези, приключения, семейный, BDRip] Dub (Rus,Ukr) + Original + Subs (Rus,Ukr,Eng) HQ Underverse HQ Underverse
0 | 0

2 | 2829

53

30.03.2013 09:04

Зарубежные сериалы Хранители / Watchmen / Сезон: 1 / Серии: 1-9 из 9 (Николь Кэссел, Стеф Грин, Стивен Уильямс) [2019 г., фантастика, боевик, драма, детектив, WEBRip] MVO (NewStudio) + Sub (Rus, Eng) eXtatik
57 | 7

0 | 617

30

17.01.2020 19:07

Зарубежные мультфильмы Хранители снов / Rise of the Guardians (Питер Рэмси) [2012 г., мультфильм, фэнтези, приключения, семейный, BDRip] Dub 90ytr90
2 | 0

0 | 2116

88

21.03.2013 14:35

Зарубежные мультфильмы Хранители снов / Rise of the Guardians (Питер Рэмси) [2012 г., мультфильм, фэнтези, приключения, семейный, BDRip] Dub 90ytr90
9 | 1

0 | 1276

15

21.03.2013 14:45

Зарубежные мультфильмы Хранители снов / Rise of the Guardians (Питер Рэмси) [2012 г., мультфильм, фэнтези, приключения, семейный, BDRip] Dub + Eng 90ytr90
1 | 0

2 | 1314

46

15.05.2013 21:15

National Geographic Хранители Природы: Сербия и Черногория / Guardians of Nature: Serbia & Montenegro [2005 г., документальный, познавательный, флора, фауна, HDTVRip] VO ARI71
0 | 0

0 | 671

7

17.06.2018 10:44

Мультфильмы [DVD / HDDVD / BD / Remux] Хранители снов / Rise of the Guardians (Питер Рэмси / Peter Ramsey) [2012 г., мультфильм, фэнтези, приключения, семейный, BDRemux 1080p] Dub + AVO (Живов) + Ukr + Eng + Com + Subs (Rus, Ukr, Eng) uzi2009
14 | 2

0 | 1959

2

07.04.2014 13:16

Зарубежное кино [HDDVDRip / BDRip / WEB-DL / HDTV 1080/720р] Хранители сокровищ / Treasure Guards (Иэн Б. МакДональд) [2011 г., приключения, BDRip 1080p] MVO + Original + Sub makkol
1 | 0

0 | 1008

12

07.10.2017 11:48

Adventure / Quest Хранители 2: Последний Секрет Ордена / The Keepers 2: The Order's Last Secret CE [2013 г., Квест, поиск предметов, головоломка] RUS [L] Чертёнок
2 | 0

0 | 2518

17

25.02.2013 12:06

* Архив (художественные фильмы) Хранители / Watchmen (Зак Снайдер) [2009 г., фантастика, боевик, триллер, драма, DVDRip] ZondeR

8 | 2196

29.08.2010 23:52



Последний раз редактировалось: ARI71 (12.01.2019 08:48), всего редактировалось 1 раз

ARI71 Пол:Муж

11-Янв-2019 15:54

Статус раздачи - "Золотая"

vladsheb Пол:Муж

28-Ноя-2019 10:51

Темно, мрачно.. Картинка не впечатляет! Алтай намного ярче и сочнее, чем в этом "кино"...

Яндекс.Метрика powered by Sphinx


В Н И М А Н И Е
Сайт не распространяет и не хранит электронные версии произведений, а лишь бесплатно и без коммерческой выгоды (не требуя взамен платы,
SMS и т.д.) предоставляет доступ к создаваемому пользователями каталогу ссылок на торрент-файлы, которые содержат только списки хеш-сумм.
Убедительная просьба с жалобами обращаться напрямую к пользователю, разместившему торрент файл.

Вверх