Loading...
Error

Миссия невыполнима: Последствия / Mission: Impossible - Fallout (Кристофер МакКуорри / Christopher McQuarrie) [2018 г., боевик, триллер, приключения, BDRemux 1080p] [IMAX Edition] Dub (Rus) + Dub (Ukr.iTunes) + Original (Eng) + Sub (Rus, Ukr, Eng)

Статистика раздачи
Размер:  33,71 GB   |    Зарегистрирован:  1 год 7 месяцев   |    Скачан:  14 раз

Полного источника не было: 5 месяцев 13 дней

Сидов:  0  |  0 KB/s  ]   Личеров:  0  |  0 KB/s  ]

* - сиды/пиры с внешних источников

   
 
Автор Сообщение

90ytr90 

05-Дек-2018 13:27

Миссия невыполнима: Последствия / Mission: Impossible - Fallout
«Когда миссия не оставляет выбора»

Страна: США
Год выпуска: 2018
Жанр: боевик, триллер, приключения
Продолжительность: 02:27:25
Озвучивание:
  • профессиональное (полное дублирование) [русский (лицензия)]
  • профессиональное (полное дублирование) [украинский (iTunes)]
  • оригинальная звуковая дорожка [английский]

Режиссёр: Кристофер МакКуорри / Christopher McQuarrie

В ролях:
Том Круз (Ethan Hunt), Генри Кавилл (August Walker), Винг Реймз (Luther Stickell), Саймон Пегг (Benji Dunn), Ребекка Фергюсон (Ilsa Faust), Шон Харрис (Solomon Lane), Анджела Бассетт (Erika Sloane), Ванесса Кирби (The White Widow), Мишель Монахэн (Julia), Уэс Бентли (Erik), Алек Болдуин (Alan Hunley)


Сюжет фильма:
Итан Хант и его команда, а также недавно примкнувшие к ним союзники, вынуждены действовать наперегонки со временем, когда новая миссия идет не по плану.

  • Дата мировой премьеры: 12 июля 2018
  • Дата российской премьеры: 26 июля 2018, «Централ Партнершип»
             
Качество видео: BDRemux 1080p [IMAX Edition]
Формат: MKV
Видео: AVC, 1920x1080 (16:9), 26.2 Mbps, 23.976 (24000/1001) fps, 0.527 bit/pixel
Аудио #1: AC3, 640 kbps, 6 ch, 48 kHz, Dub [Russian (лицензия)]
Аудио #2: AC3, 160 kbps, 2 ch, 48 kHz, Dub [Ukrainian.iTunes]
Аудио #3: TrueHD, 5026 kbps, 8 ch, 48 kHz, Original [English]
Аудио #4: AC3, 640 kbps, 6 ch, 48 kHz, Original [English]
Субтитры: Russian (forced, full), Ukrainian (forced, full), English (SDH, SDH-Colored)
Навигация по главам: есть (16)

Сборка: селезень

Код:

General
Unique ID                   : 173330855982826903651218216121564564886 (0x82664EFF40E761426EC964A225CA8D96)
Complete name               : D:Video111Mission.Impossible.Fallout.2018.Lic.BDREMUX.1080p.selezen.mkv
Format                      : Matroska
Format version              : Version 4
File size                   : 33.7 GiB
Duration                    : 2 h 27 min
Overall bit rate mode       : Variable
Overall bit rate            : 32.7 Mb/s
Movie name                  : Mission Impossible Fallout 2018 from селезень
Encoded date                : UTC 2018-12-05 13:02:39
Writing application         : mkvmerge v29.0.0 ('Like It Or Not') 64-bit
Writing library             : libebml v1.3.6 + libmatroska v1.4.9

Video
ID                          : 1
Format                      : AVC
Format/Info                 : Advanced Video Codec
Format profile              : High@L4.1
Format settings             : CABAC / 4 Ref Frames
Format settings, CABAC      : Yes
Format settings, ReFrames   : 4 frames
Codec ID                    : V_MPEG4/ISO/AVC
Duration                    : 2 h 27 min
Bit rate mode               : Variable
Bit rate                    : 26.2 Mb/s
Maximum bit rate            : 28.0 Mb/s
Width                       : 1 920 pixels
Height                      : 1 080 pixels
Display aspect ratio        : 16:9
Frame rate mode             : Constant
Frame rate                  : 23.976 (24000/1001) FPS
Color space                 : YUV
Chroma subsampling          : 4:2:0
Bit depth                   : 8 bits
Scan type                   : Progressive
Bits/(Pixel*Frame)          : 0.527
Stream size                 : 27.0 GiB (80%)
Language                    : English
Default                     : Yes
Forced                      : No

Audio #1
ID                          : 2
Format                      : AC-3
Format/Info                 : Audio Coding 3
Commercial name             : Dolby Digital
Codec ID                    : A_AC3
Duration                    : 2 h 27 min
Bit rate mode               : Constant
Bit rate                    : 640 kb/s
Channel(s)                  : 6 channels
Channel layout              : L R C LFE Ls Rs
Sampling rate               : 48.0 kHz
Frame rate                  : 31.250 FPS (1536 SPF)
Bit depth                   : 16 bits
Compression mode            : Lossy
Stream size                 : 675 MiB (2%)
Title                       : Dub [License]
Language                    : Russian
Service kind                : Complete Main
Default                     : Yes
Forced                      : Yes

Audio #2
ID                          : 3
Format                      : AC-3
Format/Info                 : Audio Coding 3
Commercial name             : Dolby Digital
Codec ID                    : A_AC3
Duration                    : 2 h 27 min
Bit rate mode               : Constant
Bit rate                    : 160 kb/s
Channel(s)                  : 2 channels
Channel layout              : L R
Sampling rate               : 48.0 kHz
Frame rate                  : 31.250 FPS (1536 SPF)
Bit depth                   : 16 bits
Compression mode            : Lossy
Stream size                 : 169 MiB (0%)
Title                       : Dub
Language                    : Ukrainian
Service kind                : Complete Main
Default                     : No
Forced                      : No

Audio #3
ID                          : 4
Format                      : MLP FBA 16-ch
Format/Info                 : Meridian Lossless Packing FBA with 16-channel presentation
Commercial name             : Dolby TrueHD with Dolby Atmos
Codec ID                    : A_TRUEHD
Duration                    : 2 h 27 min
Bit rate mode               : Variable
Bit rate                    : 5 026 kb/s
Maximum bit rate            : 8 175 kb/s
Channel(s)                  : 8 channels
Channel layout              : L R C LFE Ls Rs Lb Rb
Sampling rate               : 48.0 kHz
Frame rate                  : 1 200.000 FPS (40 SPF)
Compression mode            : Lossless
Stream size                 : 5.17 GiB (15%)
Title                       : Original
Language                    : English
Default                     : No
Forced                      : No
Number of dynamic objects   : 11
Bed channel count           : 1 channel
Bed channel configuration   : LFE

Audio #4
ID                          : 5
Format                      : AC-3
Format/Info                 : Audio Coding 3
Commercial name             : Dolby Digital
Codec ID                    : A_AC3
Duration                    : 2 h 27 min
Bit rate mode               : Constant
Bit rate                    : 640 kb/s
Channel(s)                  : 6 channels
Channel layout              : L R C LFE Ls Rs
Sampling rate               : 48.0 kHz
Frame rate                  : 31.250 FPS (1536 SPF)
Bit depth                   : 16 bits
Compression mode            : Lossy
Stream size                 : 675 MiB (2%)
Language                    : English
Service kind                : Complete Main
Default                     : No
Forced                      : No

Text #1
ID                          : 6
Format                      : UTF-8
Codec ID                    : S_TEXT/UTF8
Codec ID/Info               : UTF-8 Plain Text
Duration                    : 2 h 25 min
Bit rate                    : 1 b/s
Count of elements           : 36
Stream size                 : 1.29 KiB (0%)
Title                       : Forced
Language                    : Russian
Default                     : Yes
Forced                      : Yes

Text #2
ID                          : 7
Format                      : UTF-8
Codec ID                    : S_TEXT/UTF8
Codec ID/Info               : UTF-8 Plain Text
Duration                    : 2 h 26 min
Bit rate                    : 68 b/s
Count of elements           : 1575
Stream size                 : 73.1 KiB (0%)
Title                       : Full
Language                    : Russian
Default                     : No
Forced                      : No

Text #3
ID                          : 8
Format                      : UTF-8
Codec ID                    : S_TEXT/UTF8
Codec ID/Info               : UTF-8 Plain Text
Duration                    : 2 h 25 min
Bit rate                    : 1 b/s
Count of elements           : 37
Stream size                 : 1.31 KiB (0%)
Title                       : Forced
Language                    : Ukrainian
Default                     : No
Forced                      : No

Text #4
ID                          : 9
Format                      : UTF-8
Codec ID                    : S_TEXT/UTF8
Codec ID/Info               : UTF-8 Plain Text
Duration                    : 2 h 26 min
Bit rate                    : 75 b/s
Count of elements           : 1576
Stream size                 : 80.7 KiB (0%)
Title                       : Full
Language                    : Ukrainian
Default                     : No
Forced                      : No

Text #5
ID                          : 10
Format                      : UTF-8
Codec ID                    : S_TEXT/UTF8
Codec ID/Info               : UTF-8 Plain Text
Duration                    : 2 h 19 min
Bit rate                    : 53 b/s
Count of elements           : 1854
Stream size                 : 55.0 KiB (0%)
Title                       : SDH
Language                    : English
Default                     : No
Forced                      : No

Text #6
ID                          : 11
Format                      : UTF-8
Codec ID                    : S_TEXT/UTF8
Codec ID/Info               : UTF-8 Plain Text
Duration                    : 2 h 19 min
Bit rate                    : 92 b/s
Count of elements           : 1854
Stream size                 : 94.8 KiB (0%)
Title                       : SDH Colored
Language                    : English
Default                     : No
Forced                      : No

Menu
00:00:00.000                : en:00:00:00.000
00:10:37.011                : en:00:10:37.011
00:17:11.405                : en:00:17:11.405
00:26:57.241                : en:00:26:57.241
00:35:56.654                : en:00:35:56.654
00:49:18.414                : en:00:49:18.414
01:00:00.806                : en:01:00:00.806
01:10:23.719                : en:01:10:23.719
01:17:07.289                : en:01:17:07.289
01:28:28.470                : en:01:28:28.470
01:39:09.652                : en:01:39:09.652
01:46:26.547                : en:01:46:26.547
01:55:45.564                : en:01:55:45.564
02:03:10.592                : en:02:03:10.592
02:14:00.908                : en:02:14:00.908
02:19:48.088                : en:02:19:48.088


Скриншоты



pic pic pic pic pic

Этот торрент недоступен для скачивания без регистрации, однако доступен по публичной magnet-ссылке (источники с публичных трекеров). Перед использованием ссылки прочтите, пожалуйста Пользовательское соглашение, а также как можно дольше оставайтесь на раздаче! Для того, чтобы скачать сам торрент-файл (который видит больше источников), а также для того, чтобы поблагодарить релизера, вам необходимо зарегистрироваться. Если регистрироваться лень - вы можете также попробовать скачать релиз по нашим партнерским ссылкам ниже. Кроме того, зарегистрированным пользователям не показывается всплывающая реклама при скачивании.

[underverse.name].t121011.torrent
Трекер: Зарегистрирован   [ 05.12.2018 13:27 ]  

Статус: проверено (by 90ytr90 at 05.12.2018 15:57)
Поблагодарили: пока никто не поблагодарил...
Тип торрента: публичный - доступные источники с открытых трекеров: 
Размер: 33,71 GB (занимает 7,7 DVDR, для записи нужно 8 болванок DVDR/RW)
 
 
Похожие темы
Форум Тема Автор Торрент Отв. Посл. сооб.
Зарубежное кино [DVDRip, Low-Res HDRip, и т.д.] Миссия невыполнима: Протокол Фантом / Mission: Impossible - Ghost Protocol (Брэд Бёрд / Brad Bird) [2011 г., боевик, триллер, приключения, HDRip] [лицензия] 90ytr90
0 | 0

0 | 2249

103

03.04.2012 16:35

Зарубежное кино [DVDRip, Low-Res HDRip, и т.д.] Миссия невыполнима: Протокол Фантом / Mission: Impossible - Ghost Protocol (Брэд Бёрд) [2011 г., боевик, триллер, BDRip-AVC] Dub Garnett
0 | 0

0 | 1497

19

28.11.2012 17:09

Зарубежное кино [DVDRip, Low-Res HDRip, и т.д.] Миссия Невыполнима: Протокол Фантом / Mission: Impossible - Ghost Protocol (Брэд Бёрд / Brad Bird) [2011 г., боевик, триллер, приключения, BDRip-AVC] Dub + Eng 90ytr90
1 | 0

0 | 1916

24

14.04.2013 08:10

Зарубежное кино [DVDRip, Low-Res HDRip, и т.д.] Миссия невыполнима: Последствия / Mission: Impossible - Fallout (Кристофер МакКуорри / Christopher McQuarrie) [2018 г., боевик, триллер, приключения, BDRip] [IMAX Edition] AVO (Живов) 90ytr90
25 | 2

0 | 517

20

24.08.2019 09:44

Зарубежное кино [DVDRip, Low-Res HDRip, и т.д.] Миссия невыполнима: Племя изгоев / Mission: Impossible - Rogue Nation (Кристофер МакКуорри / Christopher McQuarrie) [2015 г., боевик, триллер, приключения, BDRip] Dub + hardsub (Rus) 90ytr90
43 | 1

0 | 1677

57

31.01.2016 11:01

Зарубежное кино [DVDRip, Low-Res HDRip, и т.д.] Миссия невыполнима: Племя изгоев / Mission: Impossible - Rogue Nation (Кристофер МакКуорри / Christopher McQuarrie) [2015 г., боевик, триллер, приключения, BDRip-AVC] Dub + Subs 90ytr90
9 | 1

0 | 1288

22

31.01.2016 11:34

Зарубежное кино [DVDRip, Low-Res HDRip, и т.д.] Миссия невыполнима: Племя изгоев / Mission: Impossible - Rogue Nation (Кристофер МакКуорри / Christopher McQuarrie) [2015 г., боевик, триллер, приключения, BDRip] Dub + Subs 90ytr90
5 | 1

0 | 1411

11

31.01.2016 11:43

Зарубежное кино [DVDRip, Low-Res HDRip, и т.д.] Миссия невыполнима: Племя изгоев / Mission: Impossible - Rogue Nation (Кристофер МакКуорри / Christopher McQuarrie) [2015 г., боевик, триллер, приключения, BDRip-AVC] Dub + Original (Eng) + Sub (Rus,... 90ytr90
21 | 0

0 | 1320

15

31.01.2016 11:53

Зарубежное кино [DVDRip, Low-Res HDRip, и т.д.] Миссия невыполнима: Племя изгоев / Mission: Impossible - Rogue Nation (Кристофер МакКуорри / Christopher McQuarrie) [2015 г., боевик, триллер, приключения, BDRip-AVC] Dub + Original (Eng) + Subs 90ytr90
6 | 3

0 | 1464

27

31.01.2016 12:00

Зарубежное кино [DVDRip, Low-Res HDRip, и т.д.] Миссия невыполнима: Племя изгоев / Mission: Impossible - Rogue Nation (Кристофер МакКуорри / Christopher McQuarrie) [2015 г., боевик, триллер, приключения, HDRip] AVO (Живов) 90ytr90
3 | 1

0 | 1584

38

31.01.2016 13:04


Яндекс.Метрика powered by Sphinx


В Н И М А Н И Е
Сайт не распространяет и не хранит электронные версии произведений, а лишь бесплатно и без коммерческой выгоды (не требуя взамен платы,
SMS и т.д.) предоставляет доступ к создаваемому пользователями каталогу ссылок на торрент-файлы, которые содержат только списки хеш-сумм.
Убедительная просьба с жалобами обращаться напрямую к пользователю, разместившему торрент файл.

Вверх