Loading...
Error

Миссия невыполнима: Последствия / Mission: Impossible - Fallout (Кристофер МакКуорри) [2018 г., боевик, триллер, приключения, HDTVRip 720p] Dub (звук с TS)

Статистика раздачи
Размер:  5,67 GB   |    Зарегистрирован:  1 год 9 месяцев   |    Скачан:  106 раз
Сидов:  1  |  0 KB/s  ]   Личеров:  0  |  0 KB/s  ]

* - сиды/пиры с внешних источников

   
 
Автор Сообщение

makkol Пол:Муж

13-Сен-2018 09:08

Миссия невыполнима: Последствия / Mission: Impossible - Fallout
«Когда миссия не оставляет выбора»


Год выпуска: 2018
Жанр: боевик, триллер, приключения
Производство: США [Bad Robot, Paramount Pictures, Skydance Media]
Режиссер: Кристофер МакКуорри
В ролях: Том Круз, Ребекка Фергюсон, Генри Кавилл, Мишель Монахэн, Ванесса Кирби, Уэс Бентли, Саймон Пегг, Анджела Бассетт, Алек Болдуин, Винг Рэймс
Сюжет фильма:
Итан Хант и его команда, а также недавно примкнувшие к ним союзники, вынуждены действовать наперегонки со временем, когда новая миссия идет не по плану.

  • Мировая премьера: 12 июля 2018
  • Российская премьера: 26 июля 2018


Качество видео: HDTVRip 720p

Продолжительность: 02:29:58
Формат: MKV
Видео: MPEG-4 AVC, 1280x536 (2.40:1), 23.976 fps, 5027 kbps
Аудио: русский, дублированный (звук с TS), AC3 2.0, 48 kHz, 384 kbps
Субтитры: корейские вшитые неотключаемые

Код:

Формат : Matroska
Версия формата : Version 2
Размер файла : 5,67 Гбайт
Продолжительность : 2 ч. 29 м.
Режим общего битрейта : Переменный
Общий поток : 5413 Кбит/сек
Дата кодирования : UTC 2018-09-12 22:21:54
Программа кодирования : mkvmerge v8.3.0 ('Over the Horizon') 64bit
Библиотека кодирования : libebml v1.3.1 + libmatroska v1.4.2

Видео
Идентификатор : 1
Формат : AVC
Формат/Информация : Advanced Video Codec
Профиль формата : High@L4.1
Настройки формата : CABAC / 4 Ref Frames
Параметр CABAC формата : Да
Параметр RefFrames формата : 4 кадра
Идентификатор кодека : V_MPEG4/ISO/AVC
Продолжительность : 2 ч. 29 м.
Вид битрейта : Переменный
Битрейт : 5027 Кбит/сек
Максимальный битрейт : 5500 Кбит/сек
Ширина : 1280 пикселей
Высота : 536 пикселей
Соотношение сторон : 2,40:1
Режим частоты кадров : Постоянный
Частота кадров : 23,976 (24000/1001) кадра/сек
Стандарт вещания : Component
Цветовое пространство : YUV
Субдискретизация насыщенности : 4:2:0
Битовая глубина : 8 бит
Тип развёртки : Прогрессивная
Бит/(Пиксели*Кадры) : 0.299
Размер потока : 5,16 Гбайт (91%)
Default : Да
Forced : Нет
Цветовой диапазон : Limited
Основные цвета : BT.709
Характеристики трансфера : BT.709
Коэффициенты матрицы : BT.709

Аудио
Идентификатор : 2
Формат : AC-3
Формат/Информация : Audio Coding 3
Идентификатор кодека : A_AC3
Продолжительность : 2 ч. 29 м.
Вид битрейта : Постоянный
Битрейт : 384 Кбит/сек
Каналы : 2 канала
Расположение каналов : Front: L R
Частота : 48,0 КГц
Частота кадров : 31,250 кадров/сек (1536 SPF)
Битовая глубина : 16 бит
Метод сжатия : С потерями
Размер потока : 412 Мбайт (7%)
ServiceKind/String : Complete Main
Default : Да
Forced : Нет


picpicpic
Для увеличения картинки щелкните мышкой по превью

Этот торрент недоступен для скачивания без регистрации, однако доступен по публичной magnet-ссылке (источники с публичных трекеров). Перед использованием ссылки прочтите, пожалуйста Пользовательское соглашение, а также как можно дольше оставайтесь на раздаче! Для того, чтобы скачать сам торрент-файл (который видит больше источников), а также для того, чтобы поблагодарить релизера, вам необходимо зарегистрироваться. Если регистрироваться лень - вы можете также попробовать скачать релиз по нашим партнерским ссылкам ниже. Кроме того, зарегистрированным пользователям не показывается всплывающая реклама при скачивании.

[underverse.name].t113338.torrent
Трекер: Зарегистрирован   [ 13.09.2018 09:08 ]  

Статус: поглощено (by 90ytr90 at 15.12.2019 20:37)
Поблагодарили: 3 человека
Тип торрента: публичный - доступные источники с открытых трекеров: 
Размер: 5,67 GB (занимает 1,3 DVDR, для записи нужно 2 болванки DVDR/RW)
 
 
Похожие темы
Форум Тема Автор Торрент Отв. Посл. сооб.
Зарубежное кино [DVDRip, Low-Res HDRip, и т.д.] Миссия невыполнима: Протокол Фантом / Mission: Impossible - Ghost Protocol (Брэд Бёрд / Brad Bird) [2011 г., боевик, триллер, приключения, HDRip] [лицензия] 90ytr90
0 | 0

0 | 2249

103

03.04.2012 16:35

Зарубежное кино [DVDRip, Low-Res HDRip, и т.д.] Миссия невыполнима: Протокол Фантом / Mission: Impossible - Ghost Protocol (Брэд Бёрд) [2011 г., боевик, триллер, BDRip-AVC] Dub Garnett
0 | 0

0 | 1497

19

28.11.2012 17:09

Зарубежное кино [DVDRip, Low-Res HDRip, и т.д.] Миссия Невыполнима: Протокол Фантом / Mission: Impossible - Ghost Protocol (Брэд Бёрд / Brad Bird) [2011 г., боевик, триллер, приключения, BDRip-AVC] Dub + Eng 90ytr90
1 | 0

0 | 1916

24

14.04.2013 08:10

Зарубежное кино [DVDRip, Low-Res HDRip, и т.д.] Миссия невыполнима: Последствия / Mission: Impossible - Fallout (Кристофер МакКуорри / Christopher McQuarrie) [2018 г., боевик, триллер, приключения, BDRip] [IMAX Edition] AVO (Живов) 90ytr90
25 | 2

0 | 517

20

24.08.2019 09:44

Зарубежное кино [DVDRip, Low-Res HDRip, и т.д.] Миссия невыполнима: Племя изгоев / Mission: Impossible - Rogue Nation (Кристофер МакКуорри / Christopher McQuarrie) [2015 г., боевик, триллер, приключения, BDRip] Dub + hardsub (Rus) 90ytr90
43 | 1

0 | 1677

57

31.01.2016 11:01

Зарубежное кино [DVDRip, Low-Res HDRip, и т.д.] Миссия невыполнима: Племя изгоев / Mission: Impossible - Rogue Nation (Кристофер МакКуорри / Christopher McQuarrie) [2015 г., боевик, триллер, приключения, BDRip-AVC] Dub + Subs 90ytr90
9 | 1

0 | 1288

22

31.01.2016 11:34

Зарубежное кино [DVDRip, Low-Res HDRip, и т.д.] Миссия невыполнима: Племя изгоев / Mission: Impossible - Rogue Nation (Кристофер МакКуорри / Christopher McQuarrie) [2015 г., боевик, триллер, приключения, BDRip] Dub + Subs 90ytr90
5 | 1

0 | 1411

11

31.01.2016 11:43

Зарубежное кино [DVDRip, Low-Res HDRip, и т.д.] Миссия невыполнима: Племя изгоев / Mission: Impossible - Rogue Nation (Кристофер МакКуорри / Christopher McQuarrie) [2015 г., боевик, триллер, приключения, BDRip-AVC] Dub + Original (Eng) + Sub (Rus,... 90ytr90
21 | 0

0 | 1320

15

31.01.2016 11:53

Зарубежное кино [DVDRip, Low-Res HDRip, и т.д.] Миссия невыполнима: Племя изгоев / Mission: Impossible - Rogue Nation (Кристофер МакКуорри / Christopher McQuarrie) [2015 г., боевик, триллер, приключения, BDRip-AVC] Dub + Original (Eng) + Subs 90ytr90
6 | 3

0 | 1464

27

31.01.2016 12:00

Зарубежное кино [DVDRip, Low-Res HDRip, и т.д.] Миссия невыполнима: Племя изгоев / Mission: Impossible - Rogue Nation (Кристофер МакКуорри / Christopher McQuarrie) [2015 г., боевик, триллер, приключения, HDRip] AVO (Живов) 90ytr90
3 | 1

0 | 1584

38

31.01.2016 13:04

15-Дек-2019 20:38

Топик был перенесен из форума Зарубежное кино [HDDVDRip / BDRip / WEB-DL / HDTV 1080/720р] в форум Для поглощенных раздач

Причина переноса: https://underverse.su/viewtopic.php?t=117193
90ytr90
 

Яндекс.Метрика powered by Sphinx


В Н И М А Н И Е
Сайт не распространяет и не хранит электронные версии произведений, а лишь бесплатно и без коммерческой выгоды (не требуя взамен платы,
SMS и т.д.) предоставляет доступ к создаваемому пользователями каталогу ссылок на торрент-файлы, которые содержат только списки хеш-сумм.
Убедительная просьба с жалобами обращаться напрямую к пользователю, разместившему торрент файл.

Вверх