Loading...
Error

(Eurodance, Disco, Hi NRG) Digital Emotion - Best Of (2015) [FLAC (Tracks+.CUE), Lossless]

Статистика раздачи
Размер:  576 MB   |    Зарегистрирован:  2 года   |    Скачан:  10 раз
Сидов:  1  |  0 KB/s  ]   Личеров:  0  |  0 KB/s  ]

* - сиды/пиры с внешних источников

   
 
Автор Сообщение

Бишеп Пол:Муж

05-Июл-2018 14:21

Digital Emotion - Best Of

Жанр: Eurodance, Disco, Hi NRG
Год выпуска: 2015
Источник: CD
Производитель диска: B.D.M. Music - 01108910
Аудиокодек: FLAC
Тип рипа: Tracks+.CUE
Битрейт аудио: lossless
Продолжительность: 01:18:47


Треклист:
01. Get Up, Action
02. Go Go Yellow Screen
03. The Beauty & The Beast
04. Don't Stop
05. Electric Love
06. Humanity
07. Time (Back In Time)
08. Outside In The Dark
09. Down Get Down
10. Steppin' Out
11. Reach Out I'll Be There
12. Je Veux L'amour
13. Go Go Yellow Screen (Re-Remix)

Код:

Exact Audio Copy V1.3 from 2. September 2016

EAC extraction logfile from 23. October 2017, 20:28

Digital Emotion / Best Of

Used drive  : HL-DT-STDVDRAM GH24NSD1   Adapter: 0  ID: 1

Read mode               : Secure
Utilize accurate stream : Yes
Defeat audio cache      : Yes
Make use of C2 pointers : No

Read offset correction                      : 6
Overread into Lead-In and Lead-Out          : No
Fill up missing offset samples with silence : Yes
Delete leading and trailing silent blocks   : No
Null samples used in CRC calculations       : Yes
Used interface                              : Installed external ASPI interface
Gap handling                                : Appended to previous track

Used output format              : User Defined Encoder
Selected bitrate                : 1024 kBit/s
Quality                         : High
Add ID3 tag                     : No
Command line compressor         : D:\Program Files\Exact Audio Copy\Flac\flac.exe
Additional command line options : -V -8 -T "Genre=%genre%" -T "Artist=%artist%" -T "Title=%title%" -T "Album=%albumtitle%" -T "Date=%year%" -T "Tracknumber=%tracknr%" -T "Comment=%comment%" %source%

TOC of the extracted CD

     Track |   Start  |  Length  | Start sector | End sector
    ---------------------------------------------------------
        1  |  0:00.00 |  4:44.16 |         0    |    21315   
        2  |  4:44.16 |  6:01.12 |     21316    |    48402   
        3  | 10:45.28 |  5:05.63 |     48403    |    71340   
        4  | 15:51.16 |  4:37.70 |     71341    |    92185   
        5  | 20:29.11 |  4:57.66 |     92186    |   114526   
        6  | 25:27.02 |  8:48.13 |    114527    |   154139   
        7  | 34:15.15 |  6:38.05 |    154140    |   183994   
        8  | 40:53.20 |  3:27.11 |    183995    |   199530   
        9  | 44:20.31 |  9:05.07 |    199531    |   240412   
       10  | 53:25.38 |  5:23.55 |    240413    |   264692   
       11  | 58:49.18 |  6:39.55 |    264693    |   294672   
       12  | 65:28.73 |  4:45.04 |    294673    |   316051   
       13  | 70:14.02 |  8:33.34 |    316052    |   354560   

Track  1

     Filename D:\Desktop\Digital Emotion - Best Of (2015)\01. Get Up, Action.wav

     Pre-gap length  0:00:02.00

     Peak level 98.0 %
     Extraction speed 1.1 X
     Track quality 99.9 %
     Test CRC 56A5AE48
     Copy CRC 56A5AE48
     Track not present in AccurateRip database
     Copy OK

Track  2

     Filename D:\Desktop\Digital Emotion - Best Of (2015)\02. Go Go Yellow Screen.wav

     Peak level 98.0 %
     Extraction speed 1.4 X
     Track quality 100.0 %
     Test CRC C436D0DD
     Copy CRC C436D0DD
     Track not present in AccurateRip database
     Copy OK

Track  3

     Filename D:\Desktop\Digital Emotion - Best Of (2015)\03. The Beauty & The Beast.wav

     Peak level 98.0 %
     Extraction speed 1.5 X
     Track quality 100.0 %
     Test CRC A1394606
     Copy CRC A1394606
     Track not present in AccurateRip database
     Copy OK

Track  4

     Filename D:\Desktop\Digital Emotion - Best Of (2015)\04. Don't Stop.wav

     Peak level 98.0 %
     Extraction speed 1.6 X
     Track quality 100.0 %
     Test CRC 0EF87B89
     Copy CRC 0EF87B89
     Track not present in AccurateRip database
     Copy OK

Track  5

     Filename D:\Desktop\Digital Emotion - Best Of (2015)\05. Electric Love.wav

     Peak level 98.0 %
     Extraction speed 1.7 X
     Track quality 100.0 %
     Test CRC A8E2AE0B
     Copy CRC A8E2AE0B
     Track not present in AccurateRip database
     Copy OK

Track  6

     Filename D:\Desktop\Digital Emotion - Best Of (2015)\06. Humanity.wav

     Peak level 98.0 %
     Extraction speed 1.8 X
     Track quality 99.9 %
     Test CRC 75D4A00F
     Copy CRC 75D4A00F
     Track not present in AccurateRip database
     Copy OK

Track  7

     Filename D:\Desktop\Digital Emotion - Best Of (2015)\07. Time (Back In Time).wav

     Peak level 98.0 %
     Extraction speed 1.9 X
     Track quality 99.9 %
     Test CRC DFE57CE3
     Copy CRC DFE57CE3
     Track not present in AccurateRip database
     Copy OK

Track  8

     Filename D:\Desktop\Digital Emotion - Best Of (2015)\08. Outside In The Dark.wav

     Peak level 98.0 %
     Extraction speed 1.7 X
     Track quality 99.9 %
     Test CRC F0659EC7
     Copy CRC F0659EC7
     Track not present in AccurateRip database
     Copy OK

Track  9

     Filename D:\Desktop\Digital Emotion - Best Of (2015)\09. Down Get Down.wav

     Peak level 98.0 %
     Extraction speed 2.2 X
     Track quality 99.9 %
     Test CRC 10CA8D7C
     Copy CRC 10CA8D7C
     Track not present in AccurateRip database
     Copy OK

Track 10

     Filename D:\Desktop\Digital Emotion - Best Of (2015)\10. Steppin' Out.wav

     Peak level 98.0 %
     Extraction speed 2.3 X
     Track quality 100.0 %
     Test CRC 26F4B6F3
     Copy CRC 26F4B6F3
     Track not present in AccurateRip database
     Copy OK

Track 11

     Filename D:\Desktop\Digital Emotion - Best Of (2015)\11. Reach Out I'll Be There.wav

     Peak level 98.0 %
     Extraction speed 2.3 X
     Track quality 99.9 %
     Test CRC 473C6B32
     Copy CRC 473C6B32
     Track not present in AccurateRip database
     Copy OK

Track 12

     Filename D:\Desktop\Digital Emotion - Best Of (2015)\12. Je Veux L'amour.wav

     Peak level 98.0 %
     Extraction speed 2.4 X
     Track quality 100.0 %
     Test CRC 2666DE18
     Copy CRC 2666DE18
     Track not present in AccurateRip database
     Copy OK

Track 13

     Filename D:\Desktop\Digital Emotion - Best Of (2015)\13. Go Go Yellow Screen (Re-Remix).wav

     Peak level 99.2 %
     Extraction speed 2.7 X
     Track quality 100.0 %
     Test CRC 58700B7D
     Copy CRC 58700B7D
     Track not present in AccurateRip database
     Copy OK

None of the tracks are present in the AccurateRip database

No errors occurred

End of status report

==== Log checksum 7557F5E08730DD0416F5B65297443598C25EAB4CE0E40D12DF43BE0A7C86BEE5 ====

Код:

REM GENRE "Hi NRG"
REM DATE 2015
REM DISCID AE12770D
REM COMMENT "ExactAudioCopy v1.3"
PERFORMER "Digital Emotion"
TITLE "Best Of"
REM COMPOSER ""
FILE "01. Get Up, Action.wav" WAVE
  TRACK 01 AUDIO
    TITLE "Get Up, Action"
    PERFORMER "Digital Emotion"
    REM COMPOSER ""
    INDEX 01 00:00:00
FILE "02. Go Go Yellow Screen.wav" WAVE
  TRACK 02 AUDIO
    TITLE "Go Go Yellow Screen"
    PERFORMER "Digital Emotion"
    REM COMPOSER ""
    INDEX 01 00:00:00
FILE "03. The Beauty & The Beast.wav" WAVE
  TRACK 03 AUDIO
    TITLE "The Beauty & The Beast"
    PERFORMER "Digital Emotion"
    REM COMPOSER ""
    INDEX 01 00:00:00
FILE "04. Don't Stop.wav" WAVE
  TRACK 04 AUDIO
    TITLE "Don't Stop"
    PERFORMER "Digital Emotion"
    REM COMPOSER ""
    INDEX 01 00:00:00
FILE "05. Electric Love.wav" WAVE
  TRACK 05 AUDIO
    TITLE "Electric Love"
    PERFORMER "Digital Emotion"
    REM COMPOSER ""
    INDEX 01 00:00:00
FILE "06. Humanity.wav" WAVE
  TRACK 06 AUDIO
    TITLE "Humanity"
    PERFORMER "Digital Emotion"
    REM COMPOSER ""
    INDEX 01 00:00:00
FILE "07. Time (Back In Time).wav" WAVE
  TRACK 07 AUDIO
    TITLE "Time (Back In Time)"
    PERFORMER "Digital Emotion"
    REM COMPOSER ""
    INDEX 01 00:00:00
FILE "08. Outside In The Dark.wav" WAVE
  TRACK 08 AUDIO
    TITLE "Outside In The Dark"
    PERFORMER "Digital Emotion"
    REM COMPOSER ""
    INDEX 01 00:00:00
FILE "09. Down Get Down.wav" WAVE
  TRACK 09 AUDIO
    TITLE "Down Get Down"
    PERFORMER "Digital Emotion"
    REM COMPOSER ""
    INDEX 01 00:00:00
FILE "10. Steppin' Out.wav" WAVE
  TRACK 10 AUDIO
    TITLE "Steppin' Out"
    PERFORMER "Digital Emotion"
    REM COMPOSER ""
    INDEX 01 00:00:00
FILE "11. Reach Out I'll Be There.wav" WAVE
  TRACK 11 AUDIO
    TITLE "Reach Out I'll Be There"
    PERFORMER "Digital Emotion"
    REM COMPOSER ""
    INDEX 01 00:00:00
FILE "12. Je Veux L'amour.wav" WAVE
  TRACK 12 AUDIO
    TITLE "Je Veux L'amour"
    PERFORMER "Digital Emotion"
    REM COMPOSER ""
    INDEX 01 00:00:00
FILE "13. Go Go Yellow Screen (Re-Remix).wav" WAVE
  TRACK 13 AUDIO
    TITLE "Go Go Yellow Screen (Re-Remix)"
    PERFORMER "Digital Emotion"
    REM COMPOSER ""
    INDEX 01 00:00:00


Этот торрент недоступен для скачивания без регистрации, однако доступен по публичной magnet-ссылке (источники с публичных трекеров). Перед использованием ссылки прочтите, пожалуйста Пользовательское соглашение, а также как можно дольше оставайтесь на раздаче! Для того, чтобы скачать сам торрент-файл (который видит больше источников), а также для того, чтобы поблагодарить релизера, вам необходимо зарегистрироваться. Если регистрироваться лень - вы можете также попробовать скачать релиз по нашим партнерским ссылкам ниже. Кроме того, зарегистрированным пользователям не показывается всплывающая реклама при скачивании.

[underverse.in].t107785.torrent
Трекер: Зарегистрирован   [ 05.07.2018 14:21 ]  

Статус: проверено (by Бишеп at 05.07.2018 14:23)
Поблагодарили: 1 человек
Тип торрента: публичный - доступные источники с открытых трекеров: 
Размер: 576 MB (занимает 0,13 DVDR, для записи нужно 1 болванка DVDR/RW)
 
 
Похожие темы
Форум Тема Автор Торрент Отв. Посл. сооб.
Зарубежная Pop Музыка (Eurodance, Dance, Disco) Blue System - Great Compilation Of Mixes DJ Manaev (2016) [MP3, 320 kbps CBR] IronMan
1 | 0

1 | 1894

12

26.06.2016 18:35

Eurodance, Technopop (Eurodance, Pop) E-Type - Greatest Hits (2008) [MP3, 320 kbps] Unique
2 | 0

0 | 3038

31

05.02.2011 07:07

Eurodance, Technopop (Eurodance) Dr. Alban - Discography (1990-2008) [MP3, 320 kbps] Jimmy
2 | 1

3 | 3377

21

26.07.2012 05:39

Eurodance, Technopop (Eurodance) Aqua - Discography (1996 - 2011) [MP3, 320 kbps] Jimmy
1 | 0

3 | 3919

12

30.06.2014 19:04

Eurodance, Technopop (Eurodance) Ace of Base - Greatest Hits (2008) [AAC, 256 kbps VBR] garry
1 | 0

0 | 2107

9

16.11.2014 18:56

Eurodance, Technopop (Eurodance) Aqua - Greatest Hits (2009) [AAC, 256 kbps VBR] garry
0 | 0

0 | 2156

7

16.11.2014 20:45

Eurodance, Technopop (Eurodance) Missing Heart (ex E-Rotic) - Mystery [Japanese Edition] (2000) [MP3, 320 kbps CBR] 90ytr90
0 | 0

0 | 558

7

18.05.2019 20:25

Eurodance, Technopop (Eurodance, Synthpop) Belvedere Kane - Never Felt As Good (Single) (1996) [MP3, 320 kbps CBR] Magnat
0 | 0

0 | 269

2

30.10.2019 17:26

Сборники Pop, Disco, Dance (Eurodance) VA – Best Dance Music Of 90's (1992-2000) [MP3, 320kbps CBR] Oslazzz
1 | 0

0 | 3829

29

04.12.2016 07:39

Сборники Pop, Disco, Dance (Eurodance, Disco, Italo Disco) VA - Дискотека 80-90 годов по - новому (Зарубежный выпуск # 44) (2017) [MP3, 256 - 320 kbps VBR] Evgenii82
1 | 0

0 | 1695

53

18.06.2017 06:57


Яндекс.Метрика powered by Sphinx


В Н И М А Н И Е
Сайт не распространяет и не хранит электронные версии произведений, а лишь бесплатно и без коммерческой выгоды (не требуя взамен платы,
SMS и т.д.) предоставляет доступ к создаваемому пользователями каталогу ссылок на торрент-файлы, которые содержат только списки хеш-сумм.
Убедительная просьба с жалобами обращаться напрямую к пользователю, разместившему торрент файл.

Вверх