Loading...
Error

Доказательство жизни / Proof of life (Тэйлор Хэкфорд / Taylor Hackford) [2000 г., боевик, триллер, драма, DVDRip]

Статистика раздачи
Размер:  2,92 GB   |    Зарегистрирован:  6 лет 9 месяцев   |    Скачан:  4 раза

Полного источника не было: 5 месяцев 1 день

Сидов:  0  |  0 KB/s  ]   Личеров:  0  |  0 KB/s  ]

* - сиды/пиры с внешних источников

   
 
Автор Сообщение

GUree Пол:Муж

21-Фев-2010 16:25

Доказательство жизни / Proof of life


Год выпуска: 2000
Жанр: боевик, триллер, драма
Страна: США
Режиссер: Тэйлор Хэкфорд / Taylor Hackford
В ролях: Мег Райан, Расселл Кроу, Дэвид Морс, Памела Рид, Дэвид Карузо, Энтони Хилд, Стэнли Андерсон, Готтфрид Джон, Алун Армстронг, Майкл Китчен, Марго Мартиндэйл, Марио Эрнесто Санчес, Пьетро Сибилле, Викки Эрнандес, Норма Мартинес, Диего Трухильо, Карлос Бланшар, Рауль Родригес

Сюжет фильма: Терри Торн сумел выкупить заложника Пьера Ленуа на территории Чечни, утерев нос федералам, которые настаивали на том, чтобы самостоятельно осуществить выкуп. Терри — парень не простой; владеет всеми видами оружия, знает несколько языков, является хорошим переговорщиком и психологом.

Он занимается освобождением заложников, если есть «доказательство жизни». А застраховать свою жизнь в странах с «горячими точками» стоит дорого. Еще больше выплачивается страховой компанией лицу, указанному в страховом полисе получателем. Продемонстрировав, как ловко Терри действовал в Чечне, авторы фильма переносят место действия в Южную Америку. Там захватом заложников и грабежами занимаются повстанцы. И для очередного освобождения заложников правительство обращается за помощью к Терри…


  • Мировая премьера: 4 декабря 2000




Личная оценка: 10 - всем советую

Качество видео: DVDRip

Продолжительность: 02:12:14
Видео: кодек: x264, формат: mkv, размер кадра: 720x432@1024x432, битрейт: 2140 kbps
Аудио #1: язык: русский, перевод: дублированный (дубляж), кодек: AC3 5.1, битрейт: 384 kbps
Аудио #2: язык: английский, перевод: оригинал, кодек: AC3 5.1, битрейт: 384 kbps
Аудио #3: язык: английский, перевод: оригинал, кодек: AC3 2.0, битрейт: 192 kbps
Субтитры #1: тип: вшитые отключаемые, язык: русский, формат: S_TEXT/UTF8
Субтитры #2: тип: вшитые отключаемые, язык: английский(коментарии), формат: S_TEXT/UTF8

Семпл 1 на multi-up
Семпл 2 на multi-up

Релиз группы:






General
Complete name : Proof_of_life.2000.DVDRip.AVC.mkv
Format : Matroska
File size : 2.92 GiB
Duration : 2h 12mn
Overall bit rate : 3 164 Kbps
Movie name : -=GUree=-
Encoded date : UTC 2010-02-20 12:01:54
Writing application : mkvmerge v3.2.0 ('Beginnings') built on Feb 12 2010 16:46:17
Writing library : libebml v0.7.9 + libmatroska v0.8.1

Video
ID : 1
Format : AVC
Format/Info : Advanced Video Codec
Format profile : High@L4.1
Format settings, CABAC : Yes
Format settings, ReFrames : 10 frames
Muxing mode : Container profile=Unknown@4.1
Codec ID : V_MPEG4/ISO/AVC
Duration : 2h 12mn
Bit rate : 2 141 Kbps
Nominal bit rate : 2 214 Kbps
Width : 720 pixels
Height : 432 pixels
Display aspect ratio : 2.35:1
Frame rate : 25.000 fps
Resolution : 8 bits
Colorimetry : 4:2:0
Scan type : Progressive
Bits/(Pixel*Frame) : 0.275
Stream size : 1.98 GiB (68%)
Writing library : x264 core 79 r1342kMod e8501ef
Encoding settings : cabac=1 / ref=10 / deblock=1:-2:-1 / analyse=0x3:0x113 / me=tesa / subme=10 / psy=1 / psy_rd=1.0:0.4 / mixed_ref=1 / me_range=32 / chroma_me=1 / trellis=2 / 8x8dct=1 / cqm=0 / deadzone=21,11 / chroma_qp_offset=-4 / threads=6 / nr=0 / decimate=0 / mbaff=0 / constrained_intra=0 / bframes=8 / b_pyramid=0 / b_adapt=2 / b_bias=0 / direct=3 / wpredb=1 / wpredp=2 / keyint=250 / keyint_min=25 / scenecut=40 / rc_lookahead=60 / rc=2pass / mbtree=1 / bitrate=2214 / ratetol=1.0 / qcomp=0.60 / qpmin=10 / qpmax=51 / qpstep=4 / cplxblur=20.0 / qblur=0.5 / vbv_maxrate=50000 / vbv_bufsize=50000 / ip_ratio=1.40 / aq=1:1.00
Language : English

Audio #1
ID : 2
Format : AC-3
Format/Info : Audio Coding 3
Codec ID : A_AC3
Duration : 2h 12mn
Bit rate mode : Constant
Bit rate : 384 Kbps
Channel(s) : 6 channels
Channel positions : Front: L C R, Surround: L R, LFE
Sampling rate : 48.0 KHz
Video delay : 32ms
Stream size : 363 MiB (12%)
Title : AC3 5.1 384Kb/s
Language : Russian

Audio #2
ID : 3
Format : AC-3
Format/Info : Audio Coding 3
Codec ID : A_AC3
Duration : 2h 12mn
Bit rate mode : Constant
Bit rate : 384 Kbps
Channel(s) : 6 channels
Channel positions : Front: L C R, Surround: L R, LFE
Sampling rate : 48.0 KHz
Video delay : 32ms
Stream size : 363 MiB (12%)
Title : AC3 5.1 384Kb/s
Language : English

Audio #3
ID : 4
Format : AC-3
Format/Info : Audio Coding 3
Format profile : Dolby Digital
Codec ID : A_AC3
Duration : 2h 12mn
Bit rate mode : Constant
Bit rate : 192 Kbps
Channel(s) : 2 channels
Channel positions : L R
Sampling rate : 48.0 KHz
Video delay : 32ms
Stream size : 182 MiB (6%)
Title : AC3 2.0 192Kb/s
Language : English

Text #1
ID : 5
Format : UTF-8
Codec ID : S_TEXT/UTF8
Codec ID/Info : UTF-8 Plain Text
Language : Russian

Text #2
ID : 6
Format : UTF-8
Codec ID : S_TEXT/UTF8
Codec ID/Info : UTF-8 Plain Text
Language : English

Этот торрент недоступен для скачивания без регистрации, однако доступен по публичной magnet-ссылке (источники с публичных трекеров). Перед использованием ссылки прочтите, пожалуйста Пользовательское соглашение, а также как можно дольше оставайтесь на раздаче! Для того, чтобы скачать сам торрент-файл (который видит больше источников), а также для того, чтобы поблагодарить релизера, вам необходимо зарегистрироваться. Если регистрироваться лень - вы можете также попробовать скачать релиз по нашим партнерским ссылкам ниже.

[underverse.su].t9085.torrent
Трекер: Зарегистрирован   [ 21.02.2010 16:25 ]  

Статус: проверено (by GUree at 21.02.2010 16:42)
Поблагодарили: 2 человека
Тип торрента: публичный - доступные источники с открытых трекеров: 
Размер: 2,92 GB (занимает 0,67 DVDR, для записи нужно 1 болванка DVDR/RW)
 
 
Похожие темы
Форум Тема Автор Торрент Отв. Посл. сооб.
Зарубежное кино [DVDRip, Low-Res HDRip, и т.д.] Доказательство Дьявола / Proof of the Devil (Пол Каталанотто) [2014 г., ужасы, BDRip] VO + Original makkol
14 | 0

0 | 429

12

20.11.2015 13:45

Зарубежные сериалы Доказательство / Proof / Сезон 1 (1-10 серии из 10) (Алекс Грейвз, Эллисон Андерс, Нельсон МакКормик) [2015 г., драма, WEB-DLRip] MVO + Original older
17 | 4

4 | 645

10

19.10.2015 14:16

Информационно-аналитические передачи Доказательства вины. Смертельный долг [2010 г., документальный, криминальный, TVRip] матроскин
0 | 0

1 | 1548

0

31.08.2013 06:39

Зарубежное кино [HDDVDRip / BDRip / WEB-DL / HDTV 1080/720р] Доказательство Дьявола / Proof of the Devil (Пол Каталанотто) [2014 г., ужасы, BDRip 1080p] VO + Original makkol
1 | 0

0 | 455

10

20.11.2015 13:54

* Архив Доказательство смерти / Death Proof (Квентин Тарантино) [2007 г., боевик, триллер, криминал, DVD-9] Bratok

2 | 975

12.09.2010 19:40

05-Ноя-2011 14:45

Топик был перенесен из форума Зарубежное кино AVC в форум Архив


[cron robot]
 

10-Янв-2012 07:26

Топик был перенесен из форума Архив в форум Зарубежное кино AVC


dj_maxx
 

Яндекс.Метрика powered by Sphinx


В Н И М А Н И Е
Сайт не распространяет и не хранит электронные версии произведений, а лишь бесплатно и без коммерческой выгоды (не требуя взамен платы,
SMS и т.д.) предоставляет доступ к создаваемому пользователями каталогу ссылок на торрент-файлы, которые содержат только списки хеш-сумм.
Убедительная просьба с жалобами обращаться напрямую к пользователю, разместившему торрент файл.

Вверх