Loading...
Error

Приходи на меня посмотреть (Михаил Агранович, Олег Янковский) [2000 г., мелодрама, DVDRip]

Статистика раздачи
Размер:  2,18 GB   |    Зарегистрирован:  6 лет 7 месяцев   |    Скачан:  1 раз

Полного источника не было: 4 года 10 месяцев

Сидов:  0  |  0 KB/s  ]   Личеров:  0  |  0 KB/s  ]

* - сиды/пиры с внешних источников

   
 
Автор Сообщение

GUree Пол:Муж

21-Фев-2010 12:27

Приходи на меня посмотреть


Год выпуска: 2000
Жанр: мелодрама
Режиссер: Михаил Агранович, Олег Янковский
В ролях: Олег Янковский, Екатерина Васильева, Ирина Купченко, Наталья Щукина, Иван Янковский

Сюжет фильма: Перед Новым годом окна огромного города светятся изнутри разноцветными елочными огнями. Кажется, что за каждым из этих окон осторожно хранят любимый праздник. Кажется, что за каждым из них ждут новогоднего исполнения желаний… К силуэту пожилой женщины за одним из окон старого московского дома соседи по двору наверняка привыкли как к чему-то неизменному. Софья Ивановна уже десять лет не встает со своего кресла, целыми днями смотрит в окно, клеит из бумаги трогательные фигурки и слушает Диккенса, которого читает ей вслух единственная дочь Таня. Единственная наследница, Таня, которая должна бы передать драгоценности своей дочери, похоже, смирилась с положением старой девы, и вся ее жизнь состоит только из забот о больной матери.

Возможно, эти женщины провели бы вдвоем еще немало тихих, уединенных лет в своей уютной квартире, если бы в один из предновогодних вечеров Софья Ивановна не собралась бы. .. умирать. О чем и сообщила своей дочери. И так сильно захотелось Софье Ивановне, чтобы ее дочь была счастлива, а Тане так захотелось, чтобы у ее мамы на душе было спокойно…. И так близок был Новый год, что за окном старой московской квартиры начались самые настоящие новогодние чудеса…


  • Мировая премьера: 12 июля 2001
  • Российская премьера: 13 января 2001


Личная оценка: 10 - всем советую

Качество видео: DVDRip

Продолжительность: 01:41:56
Видео: кодек: x264, формат: mkv, размер кадра: 720x576, битрейт: 2553 kbps
Аудио: язык: русский, перевод: оригинал, кодек: AC3 5.1, битрейт: 448 kbps
Субтитры #1: тип: вшитые отключаемые, язык: русский, формат: S_TEXT/UTF8
Субтитры #2: тип: вшитые отключаемые, язык: английский, формат: S_TEXT/UTF8

Семпл 1 на multi-up
Семпл 2 на multi-up

Релиз группы:






General
Complete name : Prihodi_na_menya_posmotret.2000.DVDRip.AVC.mkv
Format : Matroska
File size : 2.18 GiB
Duration : 1h 41mn
Overall bit rate : 3 063 Kbps
Movie name : -=GUree=-
Encoded date : UTC 2010-04-29 19:30:15
Writing application : mkvmerge v3.3.0 ('Language') строится на Apr 12 2010 10:07:49
Writing library : libebml v0.8.0 + libmatroska v0.9.0

Video
ID : 1
Format : AVC
Format/Info : Advanced Video Codec
Format profile : High@L4.1
Format settings, CABAC : Yes
Format settings, ReFrames : 10 frames
Muxing mode : Container profile=Unknown@4.1
Codec ID : V_MPEG4/ISO/AVC
Duration : 1h 41mn
Bit rate : 2 554 Kbps
Nominal bit rate : 2 613 Kbps
Width : 720 pixels
Height : 576 pixels
Display aspect ratio : 4:3
Original display aspect ratio : 4:3
Frame rate mode : Variable
Frame rate : 25.000 fps
Standard : PAL
Resolution : 8 bits
Colorimetry : 4:2:0
Scan type : Progressive
Bits/(Pixel*Frame) : 0.246
Stream size : 1.82 GiB (83%)
Writing library : x264 core 79 r1342kMod e8501ef
Encoding settings : cabac=1 / ref=10 / deblock=1:-2:-1 / analyse=0x3:0x113 / me=tesa / subme=10 / psy=1 / psy_rd=1.0:0.4 / mixed_ref=1 / me_range=32 / chroma_me=1 / trellis=2 / 8x8dct=1 / cqm=0 / deadzone=21,11 / chroma_qp_offset=-4 / threads=6 / nr=0 / decimate=0 / mbaff=0 / constrained_intra=0 / bframes=8 / b_pyramid=0 / b_adapt=2 / b_bias=0 / direct=3 / wpredb=1 / wpredp=2 / keyint=250 / keyint_min=25 / scenecut=40 / rc_lookahead=60 / rc=2pass / mbtree=1 / bitrate=2613 / ratetol=1.0 / qcomp=0.60 / qpmin=10 / qpmax=51 / qpstep=4 / cplxblur=20.0 / qblur=0.5 / vbv_maxrate=50000 / vbv_bufsize=50000 / ip_ratio=1.40 / aq=1:1.00

Audio
ID : 2
Format : AC-3
Format/Info : Audio Coding 3
Format_Settings_ModeExtension : CM (complete main)
Codec ID : A_AC3
Duration : 1h 41mn
Bit rate mode : Constant
Bit rate : 448 Kbps
Channel(s) : 6 channels
Channel positions : Front: L C R, Side: L R, LFE
Sampling rate : 48.0 KHz
Stream size : 327 MiB (15%)
Language : Russian

Text #1
ID : 3
Format : UTF-8
Codec ID : S_TEXT/UTF8
Codec ID/Info : UTF-8 Plain Text
Language : Russian

Text #2
ID : 4
Format : UTF-8
Codec ID : S_TEXT/UTF8
Codec ID/Info : UTF-8 Plain Text
Language : English

Этот торрент недоступен для скачивания без регистрации, однако доступен по публичной magnet-ссылке (источники с публичных трекеров). Перед использованием ссылки прочтите, пожалуйста Пользовательское соглашение, а также как можно дольше оставайтесь на раздаче! Для того, чтобы скачать сам торрент-файл (который видит больше источников), а также для того, чтобы поблагодарить релизера, вам необходимо зарегистрироваться. Если регистрироваться лень - вы можете также попробовать скачать релиз по нашим партнерским ссылкам ниже.

[underverse.su].t9078.torrent
Трекер: Зарегистрирован   [ 29.04.2010 19:47 ]  

Статус: проверено (by GUree at 29.04.2010 19:48)
Поблагодарили: 2 человека
Тип торрента: публичный - доступные источники с открытых трекеров: 
Размер: 2,18 GB (занимает 1/2 DVDR, для записи нужно 1 болванка DVDR/RW)
 
 
Похожие темы
Форум Тема Автор Торрент Отв. Посл. сооб.
Зарубежное кино [DVDRip, Low-Res HDRip, и т.д.] Приходи на меня посмотреть / И узрел я этот день / Come To See Me / Come Watch Me / Nal boreowayo (Ли Чхоль-ха) [2016 г., триллер, WEB-DLRip] DVO makkol
27 | 1

0 | 455

5

28.06.2016 22:02

GUree Пол:Муж

29-Апр-2010 20:15

Перезалил. добавил рус. сабы.

Яндекс.Метрика powered by Sphinx


В Н И М А Н И Е
Сайт не распространяет и не хранит электронные версии произведений, а лишь бесплатно и без коммерческой выгоды (не требуя взамен платы,
SMS и т.д.) предоставляет доступ к создаваемому пользователями каталогу ссылок на торрент-файлы, которые содержат только списки хеш-сумм.
Убедительная просьба с жалобами обращаться напрямую к пользователю, разместившему торрент файл.

Вверх